<?xml version="1.0" standalone="no"?>
<!DOCTYPE svg PUBLIC "-//W3C//DTD SVG 1.1//EN" "http://www.w3.org/Graphics/SVG/1.1/DTD/svg11.dtd" >
<svg>
<metadata>
Created by FontForge 20120731 at Tue Apr 26 13:04:52 2016
 By ,,,
Copyright (URW)++, copyright 1999 by (URW)++ Design &#38; Development; Cyrillic glyphs added by Valek Filippov, copyright 2001-2002; Vietnamese characters were added by Han The Thanh; copyright 2006, 2008 for TeX Gyre extensions by B. Jackowski and J.M. Nowacki (on behalf of TeX users groups). This work is released under the GUST Font License --  see http://tug.org/fonts/licenses/GUST-FONT-LICENSE.txt for details.
</metadata>
<defs>
<font id="TeXGyreHeros-Bold" horiz-adv-x="556" >
  <font-face 
    font-family="TeXGyreHeros"
    font-weight="700"
    font-stretch="normal"
    units-per-em="1000"
    panose-1="0 0 8 0 0 0 0 0 0 0"
    ascent="784"
    descent="-216"
    x-height="540"
    cap-height="729"
    bbox="-531 -307 1359 1125"
    underline-thickness="69"
    underline-position="-52"
    unicode-range="U+0020-FB04"
  />
<missing-glyph horiz-adv-x="280" 
 />
    <glyph glyph-name="I_J" unicode="IJ" horiz-adv-x="816" 
d="M210 0h-150v729h150v-729zM756 201q0 -102 -61 -157.5t-173 -55.5q-105 0 -166.5 57.5t-61.5 163.5v61h150v-59q0 -50 19 -72.5t62 -22.5q39 0 60 22t21 63v528h150v-528z" />
    <glyph glyph-name="i_j" unicode="ij" horiz-adv-x="541" 
d="M200 0h-140v540h140v-540zM202 605h-140v140h140v-140zM481 -94q0 -66 -29 -95t-94 -29q-36 0 -83 5v112q13 -4 25 -4q23 0 32 9.5t9 32.5v603h140v-634zM481 605h-140v140h140v-140z" />
    <glyph glyph-name="f_k" unicode="fk" horiz-adv-x="897" 
d="M313 436h-83v-436h-140v436h-76v93h76v65q0 135 138 135q41 0 80 -3v-105q-18 3 -40 3q-38 0 -38 -42v-53h83v-93zM889 0h-164l-129 238l-56 -61v-177h-140v729h140v-399l177 210h159l-184 -204z" />
    <glyph glyph-name="f_f" unicode="ff" horiz-adv-x="637" 
d="M623 436h-83v-436h-140v436h-170v-436h-140v436h-76v93h76v65q0 135 138 135q41 0 80 -3v-105q-18 3 -40 3q-38 0 -38 -42v-53h170v65q0 135 138 135q41 0 80 -3v-105q-18 3 -40 3q-38 0 -38 -42v-53h83v-93z" />
    <glyph glyph-name="f_i" unicode="fi" horiz-adv-x="611" 
d="M313 436h-83v-436h-140v436h-76v93h76v65q0 135 138 135q41 0 80 -3v-105q-18 3 -40 3q-38 0 -38 -42v-53h83v-93zM540 0h-140v540h140v-540zM540 605h-140v140h140v-140z" />
    <glyph glyph-name="f_l" unicode="fl" horiz-adv-x="611" 
d="M313 436h-83v-436h-140v436h-76v93h76v65q0 135 138 135q41 0 80 -3v-105q-18 3 -40 3q-38 0 -38 -42v-53h83v-93zM540 0h-140v729h140v-729z" />
    <glyph glyph-name="f_f_i" unicode="ffi" horiz-adv-x="921" 
d="M623 436h-83v-436h-140v436h-170v-436h-140v436h-76v93h76v65q0 135 138 135q41 0 80 -3v-105q-18 3 -40 3q-38 0 -38 -42v-53h170v65q0 135 138 135q41 0 80 -3v-105q-18 3 -40 3q-38 0 -38 -42v-53h83v-93zM850 0h-140v540h140v-540zM850 605h-140v140h140v-140z" />
    <glyph glyph-name="f_f_l" unicode="ffl" horiz-adv-x="921" 
d="M623 436h-83v-436h-140v436h-170v-436h-140v436h-76v93h76v65q0 135 138 135q41 0 80 -3v-105q-18 3 -40 3q-38 0 -38 -42v-53h170v65q0 135 138 135q41 0 80 -3v-105q-18 3 -40 3q-38 0 -38 -42v-53h83v-93zM850 0h-140v729h140v-729z" />
    <glyph glyph-name=".notdef" horiz-adv-x="280" 
 />
    <glyph glyph-name=".null" horiz-adv-x="0" 
 />
    <glyph glyph-name="nonmarkingreturn" horiz-adv-x="333" 
 />
    <glyph glyph-name="space" unicode=" " horiz-adv-x="278" 
 />
    <glyph glyph-name="exclam" unicode="!" horiz-adv-x="333" 
d="M242 516l-42 -309h-67l-41 309v210h150v-210zM242 0h-150v146h150v-146z" />
    <glyph glyph-name="quotedbl" unicode="&#x22;" horiz-adv-x="474" 
d="M188 599l-42 -129h-56l-40 129v130h138v-130zM424 599l-42 -129h-56l-40 129v130h138v-130z" />
    <glyph glyph-name="numbersign" unicode="#" 
d="M553 424h-109l-31 -153h100v-99h-119l-40 -204h-105l40 204h-103l-40 -204h-106l40 204h-77v99h97l30 153h-99v99h119l34 174h105l-34 -174h103l34 174h105l-34 -174h90v-99zM338 424h-103l-30 -153h103z" />
    <glyph glyph-name="dollar" unicode="$" 
d="M527 195q0 -56 -22.5 -102.5t-63.5 -72.5q-51 -32 -130 -41v-105h-68v105q-82 8 -135 46q-86 61 -86 173v9h131q5 -106 90 -121v213q-204 47 -204 213q0 84 53.5 136t150.5 61v54h68v-54q95 -5 150.5 -61.5t55.5 -149.5h-128q0 46 -20 75.5t-58 34.5v-201
q116 -32 166 -81t50 -131zM243 427v181q-81 -16 -81 -92q0 -63 81 -89zM395 183q0 73 -84 99v-196q84 21 84 97z" />
    <glyph glyph-name="percent" unicode="%" horiz-adv-x="889" 
d="M390 517q0 -73 -54.5 -126.5t-129.5 -53.5q-76 0 -130 53.5t-54 128.5t54 128.5t130 53.5q77 0 130.5 -53.5t53.5 -130.5zM291 518q0 35 -25 59.5t-60 24.5t-60 -24.5t-25 -58.5q0 -35 25 -59.5t60 -24.5t60 24.5t25 58.5zM692 709l-395 -729h-107l396 729h106zM863 167
q0 -73 -54.5 -126.5t-129.5 -53.5q-76 0 -130 53.5t-54 129.5q0 75 54 128.5t130 53.5q77 0 130.5 -53.5t53.5 -131.5zM764 168q0 35 -25 60t-60 25t-60 -24.5t-25 -59.5t25 -59.5t60 -24.5t60 24.5t25 58.5z" />
    <glyph glyph-name="ampersand" unicode="&#x26;" horiz-adv-x="722" 
d="M694 0h-161l-46 56q-60 -45 -102 -62t-93 -17q-107 0 -172 59.5t-65 156.5q0 71 34.5 116.5t122.5 91.5q-9 12 -12 15l-28 34q-43 51 -42 106q0 71 54.5 119t134.5 48t129 -42.5t49 -112.5q0 -54 -25 -92t-92 -84l116 -144q30 57 30 115v10h113v-16q0 -56 -19.5 -111.5
t-48.5 -91.5zM414 148l-136 171l-47 -29q-43 -26 -43 -80q0 -45 32.5 -81t73.5 -36q48 0 120 55zM377 556q0 28 -15 43t-42 15q-25 0 -41.5 -13.5t-16.5 -34.5q0 -19 8.5 -33.5t46.5 -62.5q60 33 60 86z" />
    <glyph glyph-name="quotesingle" unicode="'" horiz-adv-x="238" 
d="M188 599l-42 -129h-56l-40 129v130h138v-130z" />
    <glyph glyph-name="parenleft" unicode="(" horiz-adv-x="333" 
d="M303 -200h-100q-86 130 -124.5 239.5t-38.5 225.5q0 115 38.5 225t124.5 239h100q-79 -153 -109.5 -253.5t-30.5 -210.5t30 -210t110 -255z" />
    <glyph glyph-name="parenright" unicode=")" horiz-adv-x="333" 
d="M285 264q0 -115 -38.5 -225t-124.5 -239h-100q79 153 109.5 253.5t30.5 210.5t-30 210t-110 255h100q86 -130 124.5 -239.5t38.5 -225.5z" />
    <glyph glyph-name="asterisk" unicode="*" horiz-adv-x="389" 
d="M357 579l-109 -35l67 -94l-58 -43l-67 94l-67 -94l-58 43l67 94l-109 36l22 69l109 -36v116h72v-116l109 36z" />
    <glyph glyph-name="plus" unicode="+" horiz-adv-x="584" 
d="M524 200h-182v-182h-100v182h-182v100h182v182h100v-182h182v-100z" />
    <glyph glyph-name="comma" unicode="," horiz-adv-x="278" 
d="M214 9q0 -58 -12 -90.5t-42 -55.5q-39 -30 -96 -37v56q86 17 86 115v3h-86v146h150v-137z" />
    <glyph glyph-name="hyphen" unicode="-" horiz-adv-x="333" 
d="M298 207h-272v135h272v-135z" />
    <glyph glyph-name="period" unicode="." horiz-adv-x="278" 
d="M214 0h-150v146h150v-146z" />
    <glyph glyph-name="slash" unicode="/" horiz-adv-x="278" 
d="M291 714l-206 -728h-97l206 728h97z" />
    <glyph glyph-name="zero" unicode="0" 
d="M517 353q0 -102 -17.5 -174t-51 -112.5t-76 -58t-99.5 -17.5q-60 0 -104 19.5t-70.5 51.5t-42.5 81t-21.5 99.5t-5.5 114.5q0 66 5.5 117t22 99.5t43 80.5t70.5 51t103 19q61 0 105.5 -20t70.5 -52t42 -82t21 -100.5t5 -116.5zM377 356q0 107 -12.5 164t-33 74t-58.5 17
q-39 0 -60.5 -20t-32.5 -75t-11 -158t12 -157.5t33 -72t59 -17.5q39 0 60.5 19.5t32.5 73t11 152.5z" />
    <glyph glyph-name="one" unicode="1" 
d="M378 0h-140v489h-170v93q184 0 217 127h93v-709z" />
    <glyph glyph-name="two" unicode="2" 
d="M515 499q0 -72 -33.5 -122t-125.5 -118q-79 -57 -105 -81.5t-39 -52.5h300v-125h-482q5 98 39.5 156.5t124.5 119.5q117 83 149 122t32 98q0 53 -26.5 83.5t-73.5 30.5q-48 0 -74.5 -33t-26.5 -92v-23h-134q-1 11 -1 25q0 112 61.5 174.5t171.5 62.5q112 0 177.5 -61
t65.5 -164z" />
    <glyph glyph-name="three" unicode="3" 
d="M516 218q0 -104 -67.5 -165.5t-180.5 -61.5q-109 0 -174 62.5t-65 168.5h136q0 -54 28 -82.5t78 -28.5q46 0 75.5 30t29.5 77q0 56 -39 81t-120 25v94h12q63 0 93.5 24t30.5 76q0 44 -23 68.5t-65 24.5q-52 0 -74.5 -29.5t-22.5 -95.5h-130v12q0 112 62 169t168 57
q103 0 164 -52.5t61 -140.5q0 -48 -21.5 -80.5t-71.5 -63.5q61 -30 88.5 -69t27.5 -100z" />
    <glyph glyph-name="four" unicode="4" 
d="M522 157h-74v-157h-140v157h-284v118l259 434h165v-436h74v-116zM308 273v303l-185 -303h185z" />
    <glyph glyph-name="five" unicode="5" 
d="M517 241q0 -114 -70.5 -182t-185.5 -68q-104 0 -169 57.5t-65 150.5h138q0 -42 26 -65t72 -23q53 0 83.5 33t30.5 94q0 64 -30 97t-84 33q-67 0 -90 -54h-126l63 395h379v-125h-293l-23 -148q57 43 123 43q99 0 160 -65t61 -173z" />
    <glyph glyph-name="six" unicode="6" 
d="M519 244q0 -115 -65.5 -184t-171.5 -69q-138 0 -199 98q-51 81 -51 248q0 191 66.5 289t195.5 98q88 0 144 -45t69 -131h-130q-14 34 -33.5 48.5t-53.5 14.5q-63 0 -88 -47.5t-30 -159.5q33 34 65 48.5t76 14.5q92 0 149 -61t57 -162zM386 235q0 58 -29 90t-78 32
t-79 -33.5t-30 -91.5q0 -56 29.5 -88.5t78.5 -32.5q47 0 77.5 34t30.5 90z" />
    <glyph glyph-name="seven" unicode="7" 
d="M528 599q-126 -152 -185 -291.5t-69 -307.5h-141q13 111 34.5 189.5t58.5 157.5q22 47 73 125t83 112h-353v125h499v-110z" />
    <glyph glyph-name="eight" unicode="8" 
d="M525 211q0 -100 -69.5 -160t-181.5 -60q-113 0 -182.5 60t-69.5 160q0 62 27 102t89 73q-48 26 -70 60t-22 85q0 84 64.5 138.5t163.5 54.5q98 0 162.5 -54.5t64.5 -137.5q0 -52 -22 -86t-70 -60q62 -33 89 -73t27 -102zM380 518q-1 42 -29.5 67.5t-75.5 25.5
t-76.5 -25.5t-29.5 -66.5t29.5 -67.5t76.5 -26.5q46 0 75.5 26t29.5 67zM385 217q0 55 -29.5 84t-82.5 29q-51 0 -81 -29t-30 -82q0 -52 29.5 -80t81.5 -28t82 28t30 78z" />
    <glyph glyph-name="nine" unicode="9" 
d="M516 385q0 -192 -65 -293t-196 -101q-92 0 -153.5 53.5t-63.5 135.5h135q2 -31 25.5 -50t60.5 -19q117 0 117 202q-38 -42 -64 -56t-72 -14q-95 0 -153.5 65t-58.5 174q0 110 66 176t173 66q116 0 182.5 -81t66.5 -258zM373 482q0 62 -29 95t-81 33q-47 0 -74.5 -32.5
t-27.5 -93.5q0 -60 27.5 -92.5t76.5 -32.5t78.5 32.5t29.5 90.5z" />
    <glyph glyph-name="colon" unicode=":" horiz-adv-x="333" 
d="M242 0h-150v146h150v-146zM242 374h-150v146h150v-146z" />
    <glyph glyph-name="semicolon" unicode=";" horiz-adv-x="333" 
d="M242 9q0 -58 -12 -90.5t-42 -55.5q-39 -30 -96 -37v56q86 17 86 115v3h-86v146h150v-137zM242 374h-150v146h150v-146z" />
    <glyph glyph-name="less" unicode="&#x3c;" horiz-adv-x="584" 
d="M464 -105l-376 317v76l376 317v-130l-266 -225l266 -225v-130z" />
    <glyph glyph-name="equal" unicode="=" horiz-adv-x="584" 
d="M524 291h-464v100h464v-100zM524 109h-464v100h464v-100z" />
    <glyph glyph-name="greater" unicode="&#x3e;" horiz-adv-x="584" 
d="M464 212l-376 -317v130l266 225l-266 225v130l376 -317v-76z" />
    <glyph glyph-name="question" unicode="?" horiz-adv-x="611" 
d="M552 514q0 -63 -25 -104t-95 -90q-45 -32 -56 -51t-11 -68h-124v14q0 57 21.5 97t77.5 87q45 37 58 57.5t13 54.5q0 49 -30 82t-75 33q-48 0 -79 -38t-31 -96v-9v-2h-136q0 132 65 197.5t178 65.5q110 0 179.5 -64t69.5 -166zM381 0h-150v146h150v-146z" />
    <glyph glyph-name="at" unicode="@" horiz-adv-x="975" 
d="M959 366q0 -76 -35 -148.5t-100 -120.5t-143 -48q-89 0 -113 61q-60 -56 -131 -56q-74 0 -123.5 55t-49.5 137q0 113 71.5 198t172.5 85q74 0 116 -62l13 42h111l-74 -291q-10 -30 -10 -44q0 -12 10 -20t24 -8q57 0 102.5 65t45.5 143q0 116 -97 200t-230 84
q-148 0 -257.5 -109t-109.5 -256q0 -133 101 -223t249 -90q74 0 197 32l36 -90q-122 -46 -238 -46q-190 0 -323 117.5t-133 284.5q0 128 66.5 239.5t180 177.5t244.5 66q175 0 301 -110.5t126 -264.5zM579 360v5q0 31 -22 52t-54 21q-55 0 -93.5 -58t-38.5 -135
q0 -42 23.5 -71t57.5 -29q55 0 89 63.5t38 151.5z" />
    <glyph glyph-name="A" unicode="A" horiz-adv-x="722" 
d="M703 0h-154l-48 147h-273l-49 -147h-153l259 729h166zM460 272l-95 285l-95 -285h190z" />
    <glyph glyph-name="B" unicode="B" horiz-adv-x="722" 
d="M666 210q0 -94 -66.5 -152t-189.5 -58h-328v729h325q110 0 174 -55.5t64 -136.5q0 -47 -23 -81t-77 -69q121 -71 121 -177zM501 521q0 83 -106 83h-163v-165h163q106 0 106 82zM522 219q0 95 -111 95h-179v-189h179q111 0 111 94z" />
    <glyph glyph-name="C" unicode="C" horiz-adv-x="722" 
d="M685 249q-7 -124 -90.5 -192.5t-220.5 -68.5q-153 0 -241.5 100.5t-88.5 275.5q0 176 89.5 276.5t244.5 100.5q127 0 211 -68t93 -191h-143q-31 131 -156 131q-89 0 -139 -65.5t-50 -185.5q0 -119 48.5 -183.5t135.5 -64.5q148 0 161 135h146z" />
    <glyph glyph-name="D" unicode="D" horiz-adv-x="722" 
d="M681 365q0 -174 -89 -280q-72 -85 -230 -85h-285v729h285q84 0 138.5 -20t91.5 -64q89 -106 89 -280zM531 364q0 240 -169 240h-135v-479h135q169 0 169 239z" />
    <glyph glyph-name="E" unicode="E" horiz-adv-x="667" 
d="M624 0h-545v729h527v-125h-377v-165h349v-125h-349v-189h395v-125z" />
    <glyph glyph-name="F" unicode="F" horiz-adv-x="611" 
d="M586 604h-362v-165h319v-125h-319v-314h-150v729h512v-125z" />
    <glyph glyph-name="G" unicode="G" horiz-adv-x="778" 
d="M711 0h-90l-18 100q-42 -58 -94.5 -85t-125.5 -27q-148 0 -244.5 106t-96.5 271q0 170 97.5 273t255.5 103q132 0 217 -66t99 -179h-141q-40 117 -174 117q-96 0 -150 -64.5t-54 -181.5q0 -112 58.5 -181.5t149.5 -69.5q69 0 123.5 42.5t61.5 108.5h-166v125h292v-392z
" />
    <glyph glyph-name="H" unicode="H" horiz-adv-x="722" 
d="M657 0h-150v331h-289v-331h-150v729h150v-273h289v273h150v-729z" />
    <glyph glyph-name="I" unicode="I" horiz-adv-x="278" 
d="M213 0h-150v729h150v-729z" />
    <glyph glyph-name="J" unicode="J" 
d="M486 201q0 -102 -61 -157.5t-173 -55.5q-105 0 -166.5 57.5t-61.5 163.5v61h150v-59q0 -50 19 -72.5t62 -22.5q39 0 60 22t21 63v528h150v-528z" />
    <glyph glyph-name="K" unicode="K" horiz-adv-x="722" 
d="M717 0h-179l-239 322l-75 -78v-244h-150v729h150v-320l285 320h177l-291 -314z" />
    <glyph glyph-name="L" unicode="L" horiz-adv-x="611" 
d="M579 0h-499v729h150v-604h349v-125z" />
    <glyph glyph-name="M" unicode="M" horiz-adv-x="833" 
d="M776 0h-150v568l-129 -568h-150l-131 568v-568h-150v729h224l132 -580l128 580h226v-729z" />
    <glyph glyph-name="N" unicode="N" horiz-adv-x="722" 
d="M661 0h-150l-293 504v-504h-150v729h154l289 -496v496h150v-729z" />
    <glyph glyph-name="O" unicode="O" horiz-adv-x="778" 
d="M742 360q0 -162 -97 -267t-254 -105q-159 0 -255 105.5t-96 271.5q0 161 96.5 268.5t253.5 107.5q158 0 255 -107t97 -274zM592 361q0 114 -54.5 183t-146.5 69q-90 0 -145.5 -68.5t-55.5 -179.5q0 -114 55 -181.5t146 -67.5q90 0 145.5 67t55.5 178z" />
    <glyph glyph-name="P" unicode="P" horiz-adv-x="667" 
d="M633 503q0 -111 -60 -177t-160 -66h-187v-260h-150v729h322q114 0 174.5 -58t60.5 -168zM483 494q0 56 -28.5 83t-88.5 27h-140v-219h140q117 0 117 109z" />
    <glyph glyph-name="Q" unicode="Q" horiz-adv-x="778" 
d="M745 38l-76 -81l-86 81q-83 -50 -189 -50q-158 0 -254.5 105.5t-96.5 271.5t96.5 271t254.5 105t254.5 -105.5t96.5 -268.5q0 -73 -21.5 -140.5t-58.5 -112.5zM595 364q0 112 -55 180.5t-146 68.5t-146 -67t-55 -181t54.5 -181.5t145.5 -67.5q52 0 88 19l-77 73l76 81
l82 -78q33 66 33 153z" />
    <glyph glyph-name="R" unicode="R" horiz-adv-x="722" 
d="M677 0h-161q-14 26 -18.5 50t-4.5 75l2 77q0 46 -22 66.5t-71 20.5h-172v-289h-150v729h391q94 0 145 -54.5t51 -142.5q0 -132 -123 -180q27 -11 40 -17.5t26.5 -21.5t18 -27t9 -44t5.5 -63t2 -92q0 -42 32 -60v-27zM517 511q0 49 -23 71t-83 22h-181v-190h181
q61 0 83.5 23t22.5 74z" />
    <glyph glyph-name="S" unicode="S" horiz-adv-x="667" 
d="M633 219q0 -110 -78.5 -170.5t-220.5 -60.5q-141 0 -221.5 62.5t-80.5 178.5h146q0 -58 43.5 -89.5t120.5 -31.5q69 0 108 24t39 69q0 43 -30 64t-107 36l-102 20q-111 22 -158 66.5t-47 129.5q0 107 72.5 165.5t203.5 58.5q135 0 210.5 -60t75.5 -174h-140
q0 55 -40.5 84.5t-112.5 29.5q-58 0 -92 -24.5t-34 -65.5q0 -40 29 -59.5t109 -35.5l114 -22q102 -20 147.5 -65t45.5 -130z" />
    <glyph glyph-name="T" unicode="T" horiz-adv-x="611" 
d="M598 604h-213v-604h-150v604h-221v125h584v-125z" />
    <glyph glyph-name="U" unicode="U" horiz-adv-x="722" 
d="M654 246q0 -125 -79.5 -191.5t-209.5 -66.5t-209.5 66.5t-79.5 191.5v483h150v-483q0 -130 139 -130t139 130v483h150v-483z" />
    <glyph glyph-name="V" unicode="V" horiz-adv-x="667" 
d="M647 729l-250 -729h-127l-246 729h151l162 -549l159 549h151z" />
    <glyph glyph-name="W" unicode="W" horiz-adv-x="944" 
d="M932 729l-202 -729h-135l-122 569l-119 -569h-135l-206 729h159l113 -546l113 546h148l118 -547l109 547h159z" />
    <glyph glyph-name="X" unicode="X" horiz-adv-x="667" 
d="M653 0h-178l-140 253l-139 -253h-174l230 367l-222 362h178l128 -240l134 240h174l-225 -357z" />
    <glyph glyph-name="Y" unicode="Y" horiz-adv-x="667" 
d="M650 729l-231 -459v-270h-150v270l-242 459h167l149 -322l139 322h168z" />
    <glyph glyph-name="Z" unicode="Z" horiz-adv-x="611" 
d="M578 0h-548v125l373 479h-373v125h548v-125l-372 -479h372v-125z" />
    <glyph glyph-name="bracketleft" unicode="[" horiz-adv-x="333" 
d="M308 -200h-242v929h242v-102h-112v-725h112v-102z" />
    <glyph glyph-name="backslash" unicode="\" horiz-adv-x="278" 
d="M305 -14h-97l-234 728h97z" />
    <glyph glyph-name="bracketright" unicode="]" horiz-adv-x="333" 
d="M260 -200h-242v102h112v725h-112v102h242v-929z" />
    <glyph glyph-name="asciicircum" unicode="^" horiz-adv-x="584" 
d="M522 270h-113l-121 300l-115 -300h-112l165 425h125z" />
    <glyph glyph-name="underscore" unicode="_" 
d="M578 -189h-600v69h600v-69z" />
    <glyph glyph-name="grave" unicode="`" horiz-adv-x="333" 
d="M216 598h-100l-126 154h156z" />
    <glyph glyph-name="a" unicode="a" 
d="M524 0h-152q-16 20 -16 68q-74 -77 -164 -77q-71 0 -117.5 40t-46.5 115q0 72 38.5 110t120.5 53l56 10q12 2 32 5t28.5 4.5t21 5.5t17.5 9.5t9 15t4 23.5q0 54 -81 54q-52 0 -73 -16t-26 -58h-135q13 187 231 187q221 0 221 -166v-300q0 -37 32 -66v-17zM355 231v24
q-19 -9 -59 -17l-48 -9q-45 -8 -62.5 -22.5t-17.5 -44.5q0 -58 76 -58q53 0 82 33t29 94z" />
    <glyph glyph-name="b" unicode="b" horiz-adv-x="611" 
d="M575 263q0 -121 -64.5 -196.5t-162.5 -75.5q-97 0 -149 71v-62h-140v729h140v-259q50 79 149 79q103 0 165 -83.5t62 -202.5zM435 269q0 74 -33 118.5t-85 44.5q-53 0 -85.5 -43.5t-32.5 -116.5q0 -76 32 -120t86 -44q52 0 85 44t33 117z" />
    <glyph glyph-name="c" unicode="c" 
d="M522 187q-10 -87 -74 -141.5t-161 -54.5q-121 0 -187 71t-66 204q0 137 66.5 210t188.5 73q101 0 163.5 -56t69.5 -155h-134q-12 53 -34.5 75.5t-65.5 22.5q-114 0 -114 -170q0 -78 30 -120t84 -42q40 0 63 20t37 63h134z" />
    <glyph glyph-name="d" unicode="d" horiz-adv-x="611" 
d="M545 0h-140v62q-54 -71 -149 -71q-104 0 -165.5 79.5t-61.5 198.5q0 122 65 201t162 79q98 0 149 -79v259h140v-729zM405 267q0 77 -32 121t-86 44q-53 0 -85.5 -44.5t-32.5 -118.5t32.5 -117.5t85.5 -43.5t85.5 43t32.5 116z" />
    <glyph glyph-name="e" unicode="e" 
d="M525 250l-1 -17h-362q3 -75 31 -105t81 -30q90 0 107 54h138q-23 -78 -90 -119.5t-160 -41.5q-116 0 -181.5 71.5t-65.5 200.5q0 135 66.5 210.5t183.5 75.5q119 0 186 -79.5t67 -219.5zM379 326q-5 57 -34 86.5t-75 29.5q-92 0 -106 -116h215z" />
    <glyph glyph-name="f" unicode="f" horiz-adv-x="333" 
d="M313 436h-83v-436h-140v436h-76v93h76v65q0 135 138 135q41 0 80 -3v-105q-18 3 -40 3q-38 0 -38 -42v-53h83v-93z" />
    <glyph glyph-name="g" unicode="g" horiz-adv-x="611" 
d="M541 -18q0 -95 -67.5 -147.5t-189.5 -52.5q-109 0 -173 43t-66 110h145q17 -63 99 -63q53 0 86 30.5t33 79.5v80q-40 -40 -73 -55.5t-80 -15.5q-100 0 -160.5 74t-60.5 199t63.5 205t160.5 80q90 0 150 -92v83h133v-558zM410 266q0 74 -34.5 120t-87.5 46
q-51 0 -82.5 -45t-31.5 -121q0 -73 31 -115.5t81 -42.5q55 0 89.5 42.5t34.5 115.5z" />
    <glyph glyph-name="h" unicode="h" horiz-adv-x="611" 
d="M541 0h-140v330q0 100 -86 100q-47 0 -77.5 -30t-30.5 -76v-324h-140v729h140v-267q58 87 158 87q80 0 128 -48t48 -139v-362z" />
    <glyph glyph-name="i" unicode="i" horiz-adv-x="278" 
d="M207 0h-140v540h140v-540zM209 605h-140v140h140v-140z" />
    <glyph glyph-name="j" unicode="j" horiz-adv-x="278" 
d="M210 -94q0 -66 -29 -95t-94 -29q-36 0 -83 5v112q13 -4 25 -4q23 0 32 9.5t9 32.5v603h140v-634zM210 605h-140v140h140v-140z" />
    <glyph glyph-name="k" unicode="k" 
d="M548 0h-164l-129 238l-56 -61v-177h-140v729h140v-399l177 210h159l-184 -204z" />
    <glyph glyph-name="l" unicode="l" horiz-adv-x="278" 
d="M207 0h-140v729h140v-729z" />
    <glyph glyph-name="m" unicode="m" horiz-adv-x="889" 
d="M824 0h-140v360q0 32 -20.5 51t-55.5 19q-45 0 -70.5 -28t-25.5 -78v-324h-140v360q0 32 -20.5 51t-55.5 19q-45 0 -70.5 -28t-25.5 -78v-324h-140v540h139v-67q35 41 68.5 58.5t79.5 17.5q106 0 147 -80q60 80 158 80q81 0 126.5 -44t45.5 -123v-382z" />
    <glyph glyph-name="n" unicode="n" horiz-adv-x="611" 
d="M546 0h-140v333q0 97 -90 97q-51 0 -82 -29t-31 -77v-324h-140v540h140v-78q58 87 162 87q86 0 133.5 -49t47.5 -138v-362z" />
    <glyph glyph-name="o" unicode="o" horiz-adv-x="611" 
d="M569 266q0 -129 -71.5 -202t-195.5 -73q-125 0 -196 73t-71 206q0 132 71 205.5t195 73.5q128 0 198 -73.5t70 -209.5zM429 268q0 79 -34.5 123.5t-92.5 44.5t-92.5 -44.5t-34.5 -121.5t34.5 -121.5t92.5 -44.5q57 0 92 44.5t35 119.5z" />
    <glyph glyph-name="p" unicode="p" horiz-adv-x="611" 
d="M574 270q0 -122 -64 -200.5t-162 -78.5q-104 0 -150 81v-290h-140v758h140v-80q50 89 150 89q104 0 165 -78t61 -201zM434 268q0 76 -32 120t-86 44q-53 0 -85.5 -43.5t-32.5 -118.5t32.5 -118.5t85.5 -43.5q52 0 85 43.5t33 116.5z" />
    <glyph glyph-name="q" unicode="q" horiz-adv-x="611" 
d="M544 -218h-140v290q-45 -81 -151 -81q-102 0 -163.5 78t-61.5 201t64 201t162 78q100 0 150 -89v80h140v-758zM404 267q0 78 -32 121.5t-86 43.5q-53 0 -85.5 -43.5t-32.5 -118.5t32.5 -118.5t85.5 -43.5t85.5 43t32.5 116z" />
    <glyph glyph-name="r" unicode="r" horiz-adv-x="389" 
d="M370 406q-25 4 -44 4q-123 0 -123 -123v-287h-140v540h140v-106q22 55 62 85t88 30q9 0 17 -1v-142z" />
    <glyph glyph-name="s" unicode="s" 
d="M520 160q0 -82 -61 -125.5t-175 -43.5q-249 0 -255 180h137q9 -41 34 -55.5t76 -14.5q104 0 104 46q0 22 -47 37l-167 52q-71 22 -94.5 51t-23.5 82q0 83 59.5 131.5t162.5 48.5q109 0 171 -48.5t64 -134.5h-135q-1 73 -101 73q-37 0 -59 -13.5t-22 -36.5q0 -17 10 -25.5
t39 -16.5l177 -51q106 -31 106 -129v-7z" />
    <glyph glyph-name="t" unicode="t" horiz-adv-x="333" 
d="M301 0q-6 0 -34.5 -2t-46.5 -2q-70 0 -103.5 28.5t-33.5 91.5v320h-69v93h69v145h140v-145h78v-93h-78v-282q0 -36 9 -47.5t37 -11.5q11 0 32 3v-98z" />
    <glyph glyph-name="u" unicode="u" horiz-adv-x="611" 
d="M541 0h-140v71q-60 -80 -162 -80q-86 0 -133.5 49t-47.5 138v362h140v-333q0 -97 90 -97q51 0 82 29t31 77v324h140v-540z" />
    <glyph glyph-name="v" unicode="v" 
d="M536 540l-186 -540h-147l-189 540h148l117 -395l109 395h148z" />
    <glyph glyph-name="w" unicode="w" horiz-adv-x="778" 
d="M766 540l-153 -540h-145l-81 381l-86 -381h-144l-152 540h145l86 -378l82 378h140l81 -378l82 378h145z" />
    <glyph glyph-name="x" unicode="x" 
d="M535 0h-168l-91 168l-92 -168h-168l180 272l-176 268h168l88 -163l87 163h168l-176 -268z" />
    <glyph glyph-name="y" unicode="y" 
d="M538 540l-222 -639q-26 -73 -65 -96.5t-115 -23.5q-22 0 -50 4v105q22 -6 37 -6q37 0 62 26t25 64v3l-201 563h154l119 -393l112 393h144z" />
    <glyph glyph-name="z" unicode="z" horiz-adv-x="500" 
d="M468 0h-447v113l267 314h-249v113h420v-113l-265 -314h274v-113z" />
    <glyph glyph-name="braceleft" unicode="{" horiz-adv-x="389" 
d="M317 -200h-76q-54 0 -88.5 39.5t-34.5 100.5v210q0 42 -15 57t-62 15l-4 1v92h16q65 0 65 63v211q0 61 34.5 100.5t88.5 39.5h76v-99h-37q-45 0 -45 -57v-195q0 -55 -20.5 -78t-76.5 -31q56 -9 76.5 -32t20.5 -78v-195q0 -37 10 -51t35 -14h37v-99z" />
    <glyph glyph-name="bar" unicode="|" horiz-adv-x="280" 
d="M190 -200h-100v929h100v-929z" />
    <glyph glyph-name="braceright" unicode="}" horiz-adv-x="389" 
d="M352 214h-4h-12q-65 -1 -65 -63v-211q0 -61 -34.5 -100.5t-88.5 -39.5h-76v99h37q45 0 45 57v195q0 55 20.5 78t76.5 31q-56 9 -76.5 32t-20.5 78v195q0 37 -10 51t-35 14h-37v99h76q54 0 88.5 -39.5t34.5 -100.5v-210q0 -42 15 -57t62 -15l4 -1v-92z" />
    <glyph glyph-name="asciitilde" unicode="~" horiz-adv-x="584" 
d="M519 288q-9 -146 -127 -146q-49 0 -83 26l-57 42q-32 24 -61 24q-28 0 -40 -13.5t-13 -51.5h-78q7 145 127 145q48 0 83 -25l57 -42q34 -25 61 -25q28 0 40 13.5t13 52.5h78z" />
    <glyph glyph-name="uni00A0" unicode="&#xa0;" horiz-adv-x="278" 
 />
    <glyph glyph-name="exclamdown" unicode="&#xa1;" horiz-adv-x="333" 
d="M242 -186h-150v210l42 309h67l41 -309v-210zM242 394h-150v146h150v-146z" />
    <glyph glyph-name="cent" unicode="&#xa2;" 
d="M522 187q-8 -90 -69 -148t-150 -62v-101h-44v102q-104 7 -163.5 81.5t-59.5 199.5q0 129 57 203.5t166 85.5v86h44v-85q92 -1 152.5 -59.5t66.5 -151.5h-134q-10 46 -30 69t-55 28v-344q34 5 54 27.5t31 68.5h134zM259 94v339q-83 -22 -83 -173q0 -141 83 -166z" />
    <glyph glyph-name="sterling" unicode="&#xa3;" 
d="M537 22q-76 -45 -145 -45q-17 0 -98 16t-99 16q-49 0 -109 -30l-55 101q63 43 86.5 75t23.5 76q0 34 -21 85h-89v55h60q-34 59 -43.5 85.5t-9.5 59.5q0 85 65.5 142t172.5 57q117 0 176.5 -55.5t69.5 -175.5h-132l-1 11q-14 109 -112 109q-43 0 -70.5 -25.5t-27.5 -65.5
q0 -22 27 -77q23 -47 30 -65h139v-55h-122q15 -32 15 -59q0 -44 -26 -82.5t-90 -88.5q78 37 112 37q2 0 54 -10.5t73 -10.5q47 0 105 29z" />
    <glyph glyph-name="currency" unicode="&#xa4;" 
d="M382 357q0 48 -29 79.5t-75 31.5t-74 -31.5t-28 -79.5t28 -80.5t74 -32.5t75 32.5t29 80.5zM559 142l-66 -66l-98 98q-50 -33 -117 -33q-63 0 -117 33l-98 -98l-66 66l98 98q-31 51 -31 117t31 115l-98 98l66 66l98 -98q54 33 117 33q67 0 117 -33l98 98l66 -66l-98 -98
q33 -50 33 -115q0 -67 -33 -117z" />
    <glyph glyph-name="yen" unicode="&#xa5;" 
d="M552 704l-192 -353h137v-59h-142v-53h142v-59h-142v-180h-140v180h-145v59h145v53h-145v59h138l-203 353h139l139 -254l134 254h135z" />
    <glyph glyph-name="brokenbar" unicode="&#xa6;" horiz-adv-x="280" 
d="M190 357h-100v372h100v-372zM190 -200h-100v372h100v-372z" />
    <glyph glyph-name="section" unicode="&#xa7;" 
d="M518 262q0 -50 -22 -82.5t-72 -55.5q70 -49 70 -134t-60 -138t-158 -53q-209 0 -211 201h131v-10q3 -46 23.5 -63t57.5 -17q34 0 55 17t21 44q0 26 -10 38.5t-60 39.5l-171 100q-79 46 -79 132q0 45 19.5 75.5t72.5 71.5q-37 37 -49 61t-12 62q0 75 59 123.5t150 48.5
q193 0 200 -179h-127q-10 77 -78 77q-29 0 -46.5 -14t-17.5 -37q0 -21 18.5 -38.5t71.5 -46.5l127 -70q97 -54 97 -153zM398 232q0 24 -13 39.5t-48 34.5l-143 76q-42 -25 -42 -65q0 -23 11.5 -38t41.5 -32l147 -80q46 32 46 65z" />
    <glyph glyph-name="dieresis" unicode="&#xa8;" horiz-adv-x="333" 
d="M132 618h-126v115h126v-115zM327 618h-126v115h126v-115z" />
    <glyph glyph-name="copyright" unicode="&#xa9;" horiz-adv-x="737" 
d="M718 340q0 -144 -102.5 -246t-246.5 -102t-246 102t-102 246t102 246.5t246 102.5t246.5 -102.5t102.5 -246.5zM659 340q0 120 -85 205t-205 85t-204.5 -85t-84.5 -205t84.5 -204.5t204.5 -84.5t205 84.5t85 204.5zM558 288q-1 -70 -51 -109.5t-133 -39.5
q-90 0 -142 53.5t-52 146.5q0 94 52.5 147.5t143.5 53.5q77 0 127 -39t53 -109h-95q-15 67 -82 67q-47 0 -72.5 -31.5t-25.5 -89.5q0 -57 25 -88t70 -31q81 0 84 69h98z" />
    <glyph glyph-name="ordfeminine" unicode="&#xaa;" horiz-adv-x="370" 
d="M321 262h-284v78h284v-78zM329 400h-92q-9 11 -10 32q-43 -46 -98 -46q-44 0 -71 27t-27 71t23 69t72 34l34 6q47 8 57 14.5t10 22.5q0 31 -49 31q-30 0 -43 -10t-16 -34h-78q2 112 135 112t133 -100v-179q0 -22 20 -40v-10zM227 530v23q-9 -5 -35 -10l-29 -6
q-26 -5 -37 -15t-11 -29q0 -39 46 -39q31 0 48.5 20t17.5 56z" />
    <glyph glyph-name="guillemotleft" unicode="&#xab;" 
d="M255 72l-167 146v114l167 149v-117l-101 -89l101 -89v-114zM468 72l-167 146v114l167 149v-117l-101 -89l101 -89v-114z" />
    <glyph glyph-name="logicalnot" unicode="&#xac;" horiz-adv-x="584" 
d="M524 159h-100v132h-364v100h464v-232z" />
    <glyph glyph-name="uni00AD" unicode="&#xad;" horiz-adv-x="333" 
d="M298 207h-272v135h272v-135z" />
    <glyph glyph-name="registered" unicode="&#xae;" horiz-adv-x="737" 
d="M718 340q0 -144 -102.5 -246t-246.5 -102t-246 102t-102 246t102 246.5t246 102.5t246.5 -102.5t102.5 -246.5zM659 340q0 120 -85 205t-205 85t-204.5 -85t-84.5 -205t84.5 -204.5t204.5 -84.5t205 84.5t85 204.5zM545 145h-103q-17 27 -17 72q0 4 1 20t1 19
q0 37 -45 37h-89v-148h-100v389h228q57 0 87.5 -30.5t30.5 -78.5q0 -64 -56 -92q29 -13 35.5 -35.5t8.5 -102.5q1 -16 18 -23v-27zM439 415q0 21 -11.5 30t-40.5 9h-94v-81h94q30 0 41 9.5t11 32.5z" />
    <glyph glyph-name="macron" unicode="&#xaf;" horiz-adv-x="333" 
d="M315 636h-299v79h299v-79z" />
    <glyph glyph-name="degree" unicode="&#xb0;" horiz-adv-x="400" 
d="M343 569q0 -59 -42 -101t-101 -42t-101 42t-42 101t42 101t101 42t101 -42t42 -101zM287 569q0 36 -25.5 61.5t-61.5 25.5t-61.5 -25.5t-25.5 -61.5t25.5 -61.5t61.5 -25.5t61.5 25.5t25.5 61.5z" />
    <glyph glyph-name="plusminus" unicode="&#xb1;" horiz-adv-x="584" 
d="M524 300h-182v-110h-100v110h-182v100h182v182h100v-182h182v-100zM524 0h-464v100h464v-100z" />
    <glyph glyph-name="two.superior" unicode="&#xb2;" horiz-adv-x="333" 
d="M303 600q0 -39 -18.5 -64.5t-71.5 -64.5q-54 -37 -61 -46q-3 -3 -16 -18h165v-71h-273q1 54 20.5 84.5t71.5 64.5q64 42 81.5 62t17.5 49q0 27 -14 42t-40 15q-52 0 -52 -63l1 -14h-81q-1 7 -1 16q0 61 36 93.5t102 32.5q64 0 98.5 -30.5t34.5 -87.5z" />
    <glyph glyph-name="three.superior" unicode="&#xb3;" horiz-adv-x="333" 
d="M307 446q0 -55 -38.5 -88.5t-101.5 -33.5q-65 0 -100.5 33t-36.5 93h81q4 -58 57 -58q24 0 39.5 15t15.5 38q0 55 -74 55h-14v55h10q66 0 66 51q0 22 -13 35t-34 13q-27 0 -38.5 -15.5t-11.5 -50.5h-78q3 68 36 99t95 31q58 0 92.5 -28t34.5 -75q0 -50 -46 -78
q59 -29 59 -91z" />
    <glyph glyph-name="acute" unicode="&#xb4;" horiz-adv-x="333" 
d="M343 752l-126 -154h-100l70 154h156z" />
    <glyph glyph-name="mu" unicode="&#xb5;" horiz-adv-x="611" 
d="M573 -6q-33 -17 -70 -17q-35 0 -56 12t-39 42q-29 -30 -55 -42t-61 -12q-61 0 -100 38v-235h-134v760h140v-334q0 -110 84 -110q44 0 72.5 30t28.5 76v338h140v-390q0 -44 6 -58.5t24 -14.5q7 0 20 4v-87z" />
    <glyph glyph-name="paragraph" unicode="&#xb6;" 
d="M529 657h-43v-848h-98v848h-63v-848h-98v458q-92 4 -150 68t-58 160t59.5 165t147.5 69h303v-72z" />
    <glyph glyph-name="periodcentered" unicode="&#xb7;" horiz-adv-x="278" 
d="M214 250q0 -31 -22 -53t-53 -22t-53 22t-22 53t22 53t53 22t53 -22t22 -53z" />
    <glyph glyph-name="cedilla" unicode="&#xb8;" horiz-adv-x="333" 
d="M294 -127q0 -46 -34 -74t-95 -28q-55 0 -138 28l19 61q69 -30 105 -30q24 0 40.5 12t16.5 29q0 31 -51 31h-64l49 103h63l-27 -55h40q35 0 55.5 -21.5t20.5 -55.5z" />
    <glyph glyph-name="one.superior" unicode="&#xb9;" horiz-adv-x="333" 
d="M231 335h-84v254h-94v54q103 0 122 66h56v-374z" />
    <glyph glyph-name="ordmasculine" unicode="&#xba;" horiz-adv-x="365" 
d="M334 262h-301v78h301v-78zM343 555q0 -78 -43 -123.5t-117 -45.5t-117 46t-43 125q0 80 43 126t117 46q76 0 118 -46t42 -128zM259 556q0 47 -21 76t-55 29t-55 -28.5t-21 -74.5t21 -75t55 -29t55 28.5t21 73.5z" />
    <glyph glyph-name="guillemotright" unicode="&#xbb;" 
d="M255 220l-167 -148v117l101 89l-101 89v114l167 -146v-115zM462 220l-167 -148v117l101 89l-101 89v114l167 -146v-115z" />
    <glyph glyph-name="onequarter" unicode="&#xbc;" horiz-adv-x="834" 
d="M242 335h-84v254h-94v54q102 0 122 66h56v-374zM670 715l-423 -740h-87l423 740h87zM758 82h-40v-82h-84v82h-158v65l146 227h96v-226h40v-66zM634 148v144l-93 -144h93z" />
    <glyph glyph-name="onehalf" unicode="&#xbd;" horiz-adv-x="834" 
d="M242 335h-84v254h-94v54q102 0 122 66h56v-374zM644 715l-423 -740h-87l423 740h87zM774 264q0 -40 -18 -66t-71 -62q-53 -37 -62 -48q-3 -3 -15 -17h165v-71h-273q1 53 20 84t71 65q65 42 82.5 62t17.5 49q0 27 -14 42t-40 15q-25 0 -39 -16.5t-14 -46.5l2 -14h-81
q-1 7 -1 16q0 61 36 93.5t102 32.5q64 0 98 -30.5t34 -87.5z" />
    <glyph glyph-name="threequarters" unicode="&#xbe;" horiz-adv-x="834" 
d="M340 446q0 -55 -38.5 -88.5t-101.5 -33.5q-65 0 -100.5 33t-36.5 93h81q4 -58 57 -58q24 0 39.5 15t15.5 38q0 55 -74 55h-14v55h10q66 0 66 51q0 22 -13 35t-34 13q-27 0 -38.5 -15.5t-11.5 -50.5h-78q3 68 36 99t95 31q58 0 92.5 -28t34.5 -75q0 -50 -46 -78
q59 -29 59 -91zM702 715l-423 -740h-87l423 740h87zM758 82h-40v-82h-84v82h-158v65l146 227h96v-226h40v-66zM634 148v144l-93 -144h93z" />
    <glyph glyph-name="questiondown" unicode="&#xbf;" horiz-adv-x="611" 
d="M552 59q0 -132 -65 -197.5t-178 -65.5q-110 0 -179.5 64t-69.5 166q0 63 25 104t95 90q45 32 56 51t11 68h124v-14q0 -57 -21.5 -97t-77.5 -87q-45 -37 -58 -57.5t-13 -54.5q0 -49 30 -82t75 -33q48 0 79 38t31 96v9v2h136zM381 394h-150v146h150v-146z" />
    <glyph glyph-name="Agrave" unicode="&#xc0;" horiz-adv-x="722" 
d="M703 0h-154l-48 147h-273l-49 -147h-153l259 729h166zM460 272l-95 285l-95 -285h190zM421 786h-106l-135 135h165z" />
    <glyph glyph-name="Aacute" unicode="&#xc1;" horiz-adv-x="722" 
d="M703 0h-154l-48 147h-273l-49 -147h-153l259 729h166zM460 272l-95 285l-95 -285h190zM556 921l-135 -135h-106l76 135h165z" />
    <glyph glyph-name="Acircumflex" unicode="&#xc2;" horiz-adv-x="722" 
d="M703 0h-154l-48 147h-273l-49 -147h-153l259 729h166zM460 272l-95 285l-95 -285h190zM559 787h-94l-98 70l-99 -70h-91l130 135h128z" />
    <glyph glyph-name="Atilde" unicode="&#xc3;" horiz-adv-x="722" 
d="M703 0h-154l-48 147h-273l-49 -147h-153l259 729h166zM460 272l-95 285l-95 -285h190zM547 918q-6 -127 -95 -127q-24 0 -55 12l-71 26q-18 6 -30 6q-18 0 -27 -10.5t-13 -34.5h-63q3 58 28 91t66 33q20 0 56 -13l71 -25q14 -6 34 -6q32 0 36 48h63z" />
    <glyph glyph-name="Adieresis" unicode="&#xc4;" horiz-adv-x="722" 
d="M703 0h-154l-48 147h-273l-49 -147h-153l259 729h166zM460 272l-95 285l-95 -285h190zM334 797h-126v115h126v-115zM529 797h-126v115h126v-115z" />
    <glyph glyph-name="Aring" unicode="&#xc5;" horiz-adv-x="722" 
d="M703 0h-154l-48 147h-273l-49 -147h-153l259 729h166zM460 272l-95 285l-95 -285h190zM468 862q0 -40 -29.5 -69t-69.5 -29q-42 0 -71 29t-29 70t29 70t72 29q41 0 69.5 -29t28.5 -71zM415 863q0 19 -13 32.5t-32 13.5q-20 0 -34 -13.5t-14 -32.5t14 -32.5t34 -13.5
q18 0 31.5 13.5t13.5 32.5z" />
    <glyph glyph-name="AE" unicode="&#xc6;" horiz-adv-x="1000" 
d="M966 0h-536v152h-223l-53 -152h-153l263 729h682v-125h-366v-165h339v-125h-339v-189h386v-125zM430 277v327h-67l-114 -327h181z" />
    <glyph glyph-name="Ccedilla" unicode="&#xc7;" horiz-adv-x="722" 
d="M685 249q-7 -119 -83.5 -187t-204.5 -73l-19 -39h40q35 0 55.5 -21.5t20.5 -55.5q0 -46 -34 -74t-95 -28q-55 0 -138 28l19 61q69 -30 105 -30q24 0 40.5 12t16.5 29q0 31 -51 31h-64l42 88q-136 13 -213.5 112t-77.5 262q0 176 89.5 276.5t244.5 100.5q127 0 211 -68
t93 -191h-143q-31 131 -156 131q-89 0 -139 -65.5t-50 -185.5q0 -119 48.5 -183.5t135.5 -64.5q148 0 161 135h146z" />
    <glyph glyph-name="Egrave" unicode="&#xc8;" horiz-adv-x="667" 
d="M624 0h-545v729h527v-125h-377v-165h349v-125h-349v-189h395v-125zM396 786h-106l-135 135h165z" />
    <glyph glyph-name="Eacute" unicode="&#xc9;" horiz-adv-x="667" 
d="M624 0h-545v729h527v-125h-377v-165h349v-125h-349v-189h395v-125zM531 921l-135 -135h-106l76 135h165z" />
    <glyph glyph-name="Ecircumflex" unicode="&#xca;" horiz-adv-x="667" 
d="M624 0h-545v729h527v-125h-377v-165h349v-125h-349v-189h395v-125zM534 787h-94l-98 70l-99 -70h-91l130 135h128z" />
    <glyph glyph-name="Edieresis" unicode="&#xcb;" horiz-adv-x="667" 
d="M624 0h-545v729h527v-125h-377v-165h349v-125h-349v-189h395v-125zM309 797h-126v115h126v-115zM504 797h-126v115h126v-115z" />
    <glyph glyph-name="Igrave" unicode="&#xcc;" horiz-adv-x="278" 
d="M213 0h-150v729h150v-729zM213 786h-106l-135 135h165z" />
    <glyph glyph-name="Iacute" unicode="&#xcd;" horiz-adv-x="278" 
d="M213 0h-150v729h150v-729zM305 921l-135 -135h-106l76 135h165z" />
    <glyph glyph-name="Icircumflex" unicode="&#xce;" horiz-adv-x="278" 
d="M213 0h-150v729h150v-729zM329 787h-94l-98 70l-99 -70h-91l130 135h128z" />
    <glyph glyph-name="Idieresis" unicode="&#xcf;" horiz-adv-x="278" 
d="M213 0h-150v729h150v-729zM104 797h-126v115h126v-115zM299 797h-126v115h126v-115z" />
    <glyph glyph-name="Eth" unicode="&#xd0;" horiz-adv-x="722" 
d="M681 365q0 -81 -23.5 -154.5t-64.5 -125.5q-36 -45 -90.5 -65t-140.5 -20h-285v339h-77v80h77v310h285q86 0 140.5 -20t90.5 -64q41 -51 64.5 -125.5t23.5 -154.5zM537 364q0 115 -39 177.5t-136 62.5h-135v-185h150v-80h-150v-214h135q97 0 136 62.5t39 176.5z" />
    <glyph glyph-name="Ntilde" unicode="&#xd1;" horiz-adv-x="722" 
d="M661 0h-150l-293 504v-504h-150v729h154l289 -496v496h150v-729zM540 918q-6 -127 -95 -127q-23 0 -55 12l-71 26q-18 6 -30 6q-18 0 -27 -10.5t-13 -34.5h-63q3 58 28 91t66 33q20 0 56 -13l71 -25q14 -6 34 -6q31 0 36 48h63z" />
    <glyph glyph-name="Ograve" unicode="&#xd2;" horiz-adv-x="778" 
d="M742 360q0 -162 -97 -267t-254 -105q-159 0 -255 105.5t-96 271.5q0 161 96.5 268.5t253.5 107.5q158 0 255 -107t97 -274zM592 361q0 114 -54.5 183t-146.5 69q-90 0 -145.5 -68.5t-55.5 -179.5q0 -114 55 -181.5t146 -67.5q90 0 145.5 67t55.5 178zM443 786h-106
l-135 135h165z" />
    <glyph glyph-name="Oacute" unicode="&#xd3;" horiz-adv-x="778" 
d="M742 360q0 -162 -97 -267t-254 -105q-159 0 -255 105.5t-96 271.5q0 161 96.5 268.5t253.5 107.5q158 0 255 -107t97 -274zM592 361q0 114 -54.5 183t-146.5 69q-90 0 -145.5 -68.5t-55.5 -179.5q0 -114 55 -181.5t146 -67.5q90 0 145.5 67t55.5 178zM578 921l-135 -135
h-106l76 135h165z" />
    <glyph glyph-name="Ocircumflex" unicode="&#xd4;" horiz-adv-x="778" 
d="M742 360q0 -162 -97 -267t-254 -105q-159 0 -255 105.5t-96 271.5q0 161 96.5 268.5t253.5 107.5q158 0 255 -107t97 -274zM592 361q0 114 -54.5 183t-146.5 69q-90 0 -145.5 -68.5t-55.5 -179.5q0 -114 55 -181.5t146 -67.5q90 0 145.5 67t55.5 178zM581 787h-94l-98 70
l-99 -70h-91l130 135h128z" />
    <glyph glyph-name="Otilde" unicode="&#xd5;" horiz-adv-x="778" 
d="M742 360q0 -162 -97 -267t-254 -105q-159 0 -255 105.5t-96 271.5q0 161 96.5 268.5t253.5 107.5q158 0 255 -107t97 -274zM592 361q0 114 -54.5 183t-146.5 69q-90 0 -145.5 -68.5t-55.5 -179.5q0 -114 55 -181.5t146 -67.5q90 0 145.5 67t55.5 178zM569 918
q-6 -127 -95 -127q-24 0 -55 12l-71 26q-18 6 -30 6q-18 0 -27 -10.5t-13 -34.5h-63q3 58 28 91t66 33q20 0 56 -13l71 -25q14 -6 34 -6q32 0 36 48h63z" />
    <glyph glyph-name="Odieresis" unicode="&#xd6;" horiz-adv-x="778" 
d="M742 360q0 -162 -97 -267t-254 -105q-159 0 -255 105.5t-96 271.5q0 161 96.5 268.5t253.5 107.5q158 0 255 -107t97 -274zM592 361q0 114 -54.5 183t-146.5 69q-90 0 -145.5 -68.5t-55.5 -179.5q0 -114 55 -181.5t146 -67.5q90 0 145.5 67t55.5 178zM356 797h-126v115
h126v-115zM551 797h-126v115h126v-115z" />
    <glyph glyph-name="multiply" unicode="&#xd7;" horiz-adv-x="584" 
d="M491 121l-70 -70l-129 128l-129 -128l-70 70l128 129l-128 129l70 70l129 -128l129 128l70 -70l-128 -129z" />
    <glyph glyph-name="Oslash" unicode="&#xd8;" horiz-adv-x="778" 
d="M742 360q0 -162 -97 -267t-254 -105q-129 0 -218 72l-64 -69l-68 64l68 73q-69 98 -69 237q0 161 96.5 268.5t253.5 107.5q128 0 218 -73l65 70l68 -64l-69 -74q70 -100 70 -240zM592 361q0 71 -23 128l-303 -328q51 -45 125 -45q90 0 145.5 67t55.5 178zM515 568
q-50 45 -124 45q-90 0 -145.5 -68.5t-55.5 -179.5q0 -70 22 -125z" />
    <glyph glyph-name="Ugrave" unicode="&#xd9;" horiz-adv-x="722" 
d="M654 246q0 -125 -79.5 -191.5t-209.5 -66.5t-209.5 66.5t-79.5 191.5v483h150v-483q0 -130 139 -130t139 130v483h150v-483zM414 786h-106l-135 135h165z" />
    <glyph glyph-name="Uacute" unicode="&#xda;" horiz-adv-x="722" 
d="M654 246q0 -125 -79.5 -191.5t-209.5 -66.5t-209.5 66.5t-79.5 191.5v483h150v-483q0 -130 139 -130t139 130v483h150v-483zM549 921l-135 -135h-106l76 135h165z" />
    <glyph glyph-name="Ucircumflex" unicode="&#xdb;" horiz-adv-x="722" 
d="M654 246q0 -125 -79.5 -191.5t-209.5 -66.5t-209.5 66.5t-79.5 191.5v483h150v-483q0 -130 139 -130t139 130v483h150v-483zM552 787h-94l-98 70l-99 -70h-91l130 135h128z" />
    <glyph glyph-name="Udieresis" unicode="&#xdc;" horiz-adv-x="722" 
d="M654 246q0 -125 -79.5 -191.5t-209.5 -66.5t-209.5 66.5t-79.5 191.5v483h150v-483q0 -130 139 -130t139 130v483h150v-483zM327 797h-126v115h126v-115zM522 797h-126v115h126v-115z" />
    <glyph glyph-name="Yacute" unicode="&#xdd;" horiz-adv-x="667" 
d="M650 729l-231 -459v-270h-150v270l-242 459h167l149 -322l139 322h168zM532 921l-135 -135h-106l76 135h165z" />
    <glyph glyph-name="Thorn" unicode="&#xde;" horiz-adv-x="667" 
d="M633 382q0 -112 -59.5 -177t-160.5 -65h-187v-140h-150v729h150v-120h172q116 0 173 -56q62 -61 62 -171zM483 374q0 56 -28.5 83t-88.5 27h-140v-219h140q117 0 117 109z" />
    <glyph glyph-name="germandbls" unicode="&#xdf;" horiz-adv-x="611" 
d="M575 236q0 -114 -60 -183.5t-158 -69.5q-23 0 -72 6v112l13 1l20 1q52 2 84.5 35.5t32.5 87.5q0 57 -36.5 90t-100.5 33h-13v95h9q45 1 71.5 25t26.5 64q0 39 -26 61t-72 22q-41 0 -64 -21t-23 -58v-537h-140v518q0 211 236 211q101 0 165 -51t64 -131q0 -102 -87 -136
q62 -13 96 -59t34 -116z" />
    <glyph glyph-name="agrave" unicode="&#xe0;" 
d="M524 0h-152q-16 20 -16 68q-74 -77 -164 -77q-71 0 -117.5 40t-46.5 115q0 72 38.5 110t120.5 53l56 10q12 2 32 5t28.5 4.5t21 5.5t17.5 9.5t9 15t4 23.5q0 54 -81 54q-52 0 -73 -16t-26 -58h-135q13 187 231 187q221 0 221 -166v-300q0 -37 32 -66v-17zM355 231v24
q-19 -9 -59 -17l-48 -9q-45 -8 -62.5 -22.5t-17.5 -44.5q0 -58 76 -58q53 0 82 33t29 94zM321 598h-100l-126 154h156z" />
    <glyph glyph-name="aacute" unicode="&#xe1;" 
d="M524 0h-152q-16 20 -16 68q-74 -77 -164 -77q-71 0 -117.5 40t-46.5 115q0 72 38.5 110t120.5 53l56 10q12 2 32 5t28.5 4.5t21 5.5t17.5 9.5t9 15t4 23.5q0 54 -81 54q-52 0 -73 -16t-26 -58h-135q13 187 231 187q221 0 221 -166v-300q0 -37 32 -66v-17zM355 231v24
q-19 -9 -59 -17l-48 -9q-45 -8 -62.5 -22.5t-17.5 -44.5q0 -58 76 -58q53 0 82 33t29 94zM447 752l-126 -154h-100l70 154h156z" />
    <glyph glyph-name="acircumflex" unicode="&#xe2;" 
d="M524 0h-152q-16 20 -16 68q-74 -77 -164 -77q-71 0 -117.5 40t-46.5 115q0 72 38.5 110t120.5 53l56 10q12 2 32 5t28.5 4.5t21 5.5t17.5 9.5t9 15t4 23.5q0 54 -81 54q-52 0 -73 -16t-26 -58h-135q13 187 231 187q221 0 221 -166v-300q0 -37 32 -66v-17zM355 231v24
q-19 -9 -59 -17l-48 -9q-45 -8 -62.5 -22.5t-17.5 -44.5q0 -58 76 -58q53 0 82 33t29 94zM440 598h-88l-82 77l-82 -77h-86l108 154h127z" />
    <glyph glyph-name="atilde" unicode="&#xe3;" 
d="M524 0h-152q-16 20 -16 68q-74 -77 -164 -77q-71 0 -117.5 40t-46.5 115q0 72 38.5 110t120.5 53l56 10q12 2 32 5t28.5 4.5t21 5.5t17.5 9.5t9 15t4 23.5q0 54 -81 54q-52 0 -73 -16t-26 -58h-135q13 187 231 187q221 0 221 -166v-300q0 -37 32 -66v-17zM355 231v24
q-19 -9 -59 -17l-48 -9q-45 -8 -62.5 -22.5t-17.5 -44.5q0 -58 76 -58q53 0 82 33t29 94zM449 739q-6 -127 -95 -127q-24 0 -55 12l-71 26q-18 6 -30 6q-18 0 -27 -10.5t-13 -34.5h-63q3 58 28 91t66 33q20 0 56 -13l71 -25q14 -6 34 -6q32 0 36 48h63z" />
    <glyph glyph-name="adieresis" unicode="&#xe4;" 
d="M524 0h-152q-16 20 -16 68q-74 -77 -164 -77q-71 0 -117.5 40t-46.5 115q0 72 38.5 110t120.5 53l56 10q12 2 32 5t28.5 4.5t21 5.5t17.5 9.5t9 15t4 23.5q0 54 -81 54q-52 0 -73 -16t-26 -58h-135q13 187 231 187q221 0 221 -166v-300q0 -37 32 -66v-17zM355 231v24
q-19 -9 -59 -17l-48 -9q-45 -8 -62.5 -22.5t-17.5 -44.5q0 -58 76 -58q53 0 82 33t29 94zM236 618h-126v115h126v-115zM431 618h-126v115h126v-115z" />
    <glyph glyph-name="aring" unicode="&#xe5;" 
d="M524 0h-152q-16 20 -16 68q-74 -77 -164 -77q-71 0 -117.5 40t-46.5 115q0 72 38.5 110t120.5 53l56 10q12 2 32 5t28.5 4.5t21 5.5t17.5 9.5t9 15t4 23.5q0 54 -81 54q-52 0 -73 -16t-26 -58h-135q13 187 231 187q221 0 221 -166v-300q0 -37 32 -66v-17zM355 231v24
q-19 -9 -59 -17l-48 -9q-45 -8 -62.5 -22.5t-17.5 -44.5q0 -58 76 -58q53 0 82 33t29 94zM370 674q0 -40 -29.5 -69t-69.5 -29q-42 0 -71 29t-29 70t29 70t72 29q41 0 69.5 -29t28.5 -71zM317 675q0 19 -13 32.5t-32 13.5q-20 0 -34 -13.5t-14 -32.5t14 -32.5t34 -13.5
q18 0 31.5 13.5t13.5 32.5z" />
    <glyph glyph-name="ae" unicode="&#xe6;" horiz-adv-x="889" 
d="M857 250q0 -12 -1 -24h-362q0 -62 31 -94.5t83 -32.5q34 0 64 16.5t40 36.5h138q-24 -70 -92.5 -115t-157.5 -45q-136 0 -200 104q-89 -105 -205 -105q-78 0 -123 41.5t-45 116.5q0 73 38 110.5t121 52.5l56 10q13 2 28.5 4.5t21 3.5t12.5 2.5t10.5 3l7 3t8.5 4.5
q24 13 24 40q0 53 -85 53q-47 0 -68.5 -16.5t-26.5 -57.5h-131q3 187 228 187q117 0 175 -50q62 50 155 50q121 0 188.5 -78.5t67.5 -220.5zM354 231v23q-24 -14 -59 -19l-48 -7q-42 -6 -61 -20.5t-19 -44.5q0 -59 76 -59q54 0 82.5 32.5t28.5 94.5zM711 319
q-11 123 -109 123t-107 -123h216z" />
    <glyph glyph-name="ccedilla" unicode="&#xe7;" 
d="M522 187q-9 -82 -67 -135.5t-147 -59.5l-20 -42h40q35 0 55.5 -21.5t20.5 -55.5q0 -46 -34 -74t-95 -28q-55 0 -138 28l19 61q69 -30 105 -30q24 0 40.5 12t16.5 29q0 31 -51 31h-64l43 91q-102 12 -157 82t-55 191q0 137 66.5 210t188.5 73q101 0 163.5 -56t69.5 -155
h-134q-12 53 -34.5 75.5t-65.5 22.5q-114 0 -114 -170q0 -78 30 -120t84 -42q40 0 63 20t37 63h134z" />
    <glyph glyph-name="egrave" unicode="&#xe8;" 
d="M525 250l-1 -17h-362q3 -75 31 -105t81 -30q90 0 107 54h138q-23 -78 -90 -119.5t-160 -41.5q-116 0 -181.5 71.5t-65.5 200.5q0 135 66.5 210.5t183.5 75.5q119 0 186 -79.5t67 -219.5zM379 326q-5 57 -34 86.5t-75 29.5q-92 0 -106 -116h215zM322 598h-100l-126 154
h156z" />
    <glyph glyph-name="eacute" unicode="&#xe9;" 
d="M525 250l-1 -17h-362q3 -75 31 -105t81 -30q90 0 107 54h138q-23 -78 -90 -119.5t-160 -41.5q-116 0 -181.5 71.5t-65.5 200.5q0 135 66.5 210.5t183.5 75.5q119 0 186 -79.5t67 -219.5zM379 326q-5 57 -34 86.5t-75 29.5q-92 0 -106 -116h215zM448 752l-126 -154h-100
l70 154h156z" />
    <glyph glyph-name="ecircumflex" unicode="&#xea;" 
d="M525 250l-1 -17h-362q3 -75 31 -105t81 -30q90 0 107 54h138q-23 -78 -90 -119.5t-160 -41.5q-116 0 -181.5 71.5t-65.5 200.5q0 135 66.5 210.5t183.5 75.5q119 0 186 -79.5t67 -219.5zM379 326q-5 57 -34 86.5t-75 29.5q-92 0 -106 -116h215zM441 598h-88l-82 77
l-82 -77h-86l108 154h127z" />
    <glyph glyph-name="edieresis" unicode="&#xeb;" 
d="M525 250l-1 -17h-362q3 -75 31 -105t81 -30q90 0 107 54h138q-23 -78 -90 -119.5t-160 -41.5q-116 0 -181.5 71.5t-65.5 200.5q0 135 66.5 210.5t183.5 75.5q119 0 186 -79.5t67 -219.5zM379 326q-5 57 -34 86.5t-75 29.5q-92 0 -106 -116h215zM237 618h-126v115h126
v-115zM432 618h-126v115h126v-115z" />
    <glyph glyph-name="igrave" unicode="&#xec;" horiz-adv-x="278" 
d="M207 0h-140v540h140v-540zM207 598h-100l-126 154h156z" />
    <glyph glyph-name="iacute" unicode="&#xed;" horiz-adv-x="278" 
d="M207 0h-140v540h140v-540zM294 752l-126 -154h-100l70 154h156z" />
    <glyph glyph-name="icircumflex" unicode="&#xee;" horiz-adv-x="278" 
d="M207 0h-140v540h140v-540zM308 598h-88l-82 77l-82 -77h-86l108 154h127z" />
    <glyph glyph-name="idieresis" unicode="&#xef;" horiz-adv-x="278" 
d="M207 0h-140v540h140v-540zM104 618h-126v115h126v-115zM299 618h-126v115h126v-115z" />
    <glyph glyph-name="eth" unicode="&#xf0;" horiz-adv-x="611" 
d="M569 276q0 -137 -70 -211t-197 -74q-126 0 -196.5 73.5t-70.5 207.5q0 119 66 190.5t173 71.5q36 0 85 -19q-40 64 -95 96l-77 -46l-42 37l70 44q-38 23 -90 48l67 47q35 -13 87 -42q7 -4 15 -7l87 52l51 -34l-84 -50q114 -77 167.5 -169t53.5 -215zM428 263v1
q0 78 -34 121.5t-92 43.5t-92 -43t-34 -119t34 -119.5t92 -43.5t92 42.5t34 116.5z" />
    <glyph glyph-name="ntilde" unicode="&#xf1;" horiz-adv-x="611" 
d="M546 0h-140v333q0 97 -90 97q-51 0 -82 -29t-31 -77v-324h-140v540h140v-78q58 87 162 87q86 0 133.5 -49t47.5 -138v-362zM484 739q-6 -127 -95 -127q-23 0 -55 12l-71 26q-18 6 -30 6q-18 0 -27 -10.5t-13 -34.5h-63q3 58 28 91t66 33q20 0 56 -13l71 -25q14 -6 34 -6
q31 0 36 48h63z" />
    <glyph glyph-name="ograve" unicode="&#xf2;" horiz-adv-x="611" 
d="M569 266q0 -129 -71.5 -202t-195.5 -73q-125 0 -196 73t-71 206q0 132 71 205.5t195 73.5q128 0 198 -73.5t70 -209.5zM429 268q0 79 -34.5 123.5t-92.5 44.5t-92.5 -44.5t-34.5 -121.5t34.5 -121.5t92.5 -44.5q57 0 92 44.5t35 119.5zM355 598h-100l-126 154h156z" />
    <glyph glyph-name="oacute" unicode="&#xf3;" horiz-adv-x="611" 
d="M569 266q0 -129 -71.5 -202t-195.5 -73q-125 0 -196 73t-71 206q0 132 71 205.5t195 73.5q128 0 198 -73.5t70 -209.5zM429 268q0 79 -34.5 123.5t-92.5 44.5t-92.5 -44.5t-34.5 -121.5t34.5 -121.5t92.5 -44.5q57 0 92 44.5t35 119.5zM482 752l-126 -154h-100l70 154
h156z" />
    <glyph glyph-name="ocircumflex" unicode="&#xf4;" horiz-adv-x="611" 
d="M569 266q0 -129 -71.5 -202t-195.5 -73q-125 0 -196 73t-71 206q0 132 71 205.5t195 73.5q128 0 198 -73.5t70 -209.5zM429 268q0 79 -34.5 123.5t-92.5 44.5t-92.5 -44.5t-34.5 -121.5t34.5 -121.5t92.5 -44.5q57 0 92 44.5t35 119.5zM475 598h-88l-82 77l-82 -77h-86
l108 154h127z" />
    <glyph glyph-name="otilde" unicode="&#xf5;" horiz-adv-x="611" 
d="M569 266q0 -129 -71.5 -202t-195.5 -73q-125 0 -196 73t-71 206q0 132 71 205.5t195 73.5q128 0 198 -73.5t70 -209.5zM429 268q0 79 -34.5 123.5t-92.5 44.5t-92.5 -44.5t-34.5 -121.5t34.5 -121.5t92.5 -44.5q57 0 92 44.5t35 119.5zM484 739q-6 -127 -95 -127
q-23 0 -55 12l-71 26q-18 6 -30 6q-18 0 -27 -10.5t-13 -34.5h-63q3 58 28 91t66 33q20 0 56 -13l71 -25q14 -6 34 -6q31 0 36 48h63z" />
    <glyph glyph-name="odieresis" unicode="&#xf6;" horiz-adv-x="611" 
d="M569 266q0 -129 -71.5 -202t-195.5 -73q-125 0 -196 73t-71 206q0 132 71 205.5t195 73.5q128 0 198 -73.5t70 -209.5zM429 268q0 79 -34.5 123.5t-92.5 44.5t-92.5 -44.5t-34.5 -121.5t34.5 -121.5t92.5 -44.5q57 0 92 44.5t35 119.5zM271 618h-126v115h126v-115z
M466 618h-126v115h126v-115z" />
    <glyph glyph-name="divide" unicode="&#xf7;" horiz-adv-x="584" 
d="M524 200h-464v100h464v-100zM367 432q0 -31 -22 -53t-53 -22t-53 22t-22 53t22 53t53 22t53 -22t22 -53zM367 68q0 -31 -22 -53t-53 -22t-53 22t-22 53t22 53t53 22t53 -22t22 -53z" />
    <glyph glyph-name="oslash" unicode="&#xf8;" horiz-adv-x="611" 
d="M569 266q0 -129 -71.5 -202t-195.5 -73q-98 0 -164 46l-38 -40l-60 58l40 42q-45 70 -45 173q0 132 71 205.5t195 73.5q101 0 165 -45l38 39l60 -58l-40 -42q45 -67 45 -177zM429 268q0 36 -8 66l-194 -204q32 -26 75 -26q57 0 92 44.5t35 119.5zM377 410q-31 26 -75 26
q-58 0 -92.5 -44.5t-34.5 -121.5q0 -34 8 -64z" />
    <glyph glyph-name="ugrave" unicode="&#xf9;" horiz-adv-x="611" 
d="M541 0h-140v71q-60 -80 -162 -80q-86 0 -133.5 49t-47.5 138v362h140v-333q0 -97 90 -97q51 0 82 29t31 77v324h140v-540zM355 598h-100l-126 154h156z" />
    <glyph glyph-name="uacute" unicode="&#xfa;" horiz-adv-x="611" 
d="M541 0h-140v71q-60 -80 -162 -80q-86 0 -133.5 49t-47.5 138v362h140v-333q0 -97 90 -97q51 0 82 29t31 77v324h140v-540zM482 752l-126 -154h-100l70 154h156z" />
    <glyph glyph-name="ucircumflex" unicode="&#xfb;" horiz-adv-x="611" 
d="M541 0h-140v71q-60 -80 -162 -80q-86 0 -133.5 49t-47.5 138v362h140v-333q0 -97 90 -97q51 0 82 29t31 77v324h140v-540zM475 598h-88l-82 77l-82 -77h-86l108 154h127z" />
    <glyph glyph-name="udieresis" unicode="&#xfc;" horiz-adv-x="611" 
d="M541 0h-140v71q-60 -80 -162 -80q-86 0 -133.5 49t-47.5 138v362h140v-333q0 -97 90 -97q51 0 82 29t31 77v324h140v-540zM271 618h-126v115h126v-115zM466 618h-126v115h126v-115z" />
    <glyph glyph-name="yacute" unicode="&#xfd;" 
d="M538 540l-222 -639q-26 -73 -65 -96.5t-115 -23.5q-22 0 -50 4v105q22 -6 37 -6q37 0 62 26t25 64v3l-201 563h154l119 -393l112 393h144zM454 752l-126 -154h-100l70 154h156z" />
    <glyph glyph-name="thorn" unicode="&#xfe;" horiz-adv-x="611" 
d="M574 262q0 -113 -64.5 -192t-161.5 -79q-100 0 -150 87v-296h-140v947h140v-269q50 89 150 89q97 0 161.5 -81.5t64.5 -205.5zM434 260q0 77 -32.5 124.5t-85.5 47.5t-85.5 -47t-32.5 -123q0 -65 33 -109.5t85 -44.5q51 0 84.5 44t33.5 108z" />
    <glyph glyph-name="ydieresis" unicode="&#xff;" 
d="M538 540l-222 -639q-26 -73 -65 -96.5t-115 -23.5q-22 0 -50 4v105q22 -6 37 -6q37 0 62 26t25 64v3l-201 563h154l119 -393l112 393h144zM243 618h-126v115h126v-115zM438 618h-126v115h126v-115z" />
    <glyph glyph-name="Amacron" unicode="&#x100;" horiz-adv-x="722" 
d="M703 0h-154l-48 147h-273l-49 -147h-153l259 729h166zM460 272l-95 285l-95 -285h190zM517 815h-299v79h299v-79z" />
    <glyph glyph-name="amacron" unicode="&#x101;" 
d="M524 0h-152q-16 20 -16 68q-74 -77 -164 -77q-71 0 -117.5 40t-46.5 115q0 72 38.5 110t120.5 53l56 10q12 2 32 5t28.5 4.5t21 5.5t17.5 9.5t9 15t4 23.5q0 54 -81 54q-52 0 -73 -16t-26 -58h-135q13 187 231 187q221 0 221 -166v-300q0 -37 32 -66v-17zM355 231v24
q-19 -9 -59 -17l-48 -9q-45 -8 -62.5 -22.5t-17.5 -44.5q0 -58 76 -58q53 0 82 33t29 94zM419 636h-299v79h299v-79z" />
    <glyph glyph-name="Abreve" unicode="&#x102;" horiz-adv-x="722" 
d="M703 0h-154l-48 147h-273l-49 -147h-153l259 729h166zM460 272l-95 285l-95 -285h190zM548 915q-12 -122 -182 -122q-81 0 -129.5 30t-49.5 92h71q8 -40 110 -40q103 0 109 40h71z" />
    <glyph glyph-name="abreve" unicode="&#x103;" 
d="M524 0h-152q-16 20 -16 68q-74 -77 -164 -77q-71 0 -117.5 40t-46.5 115q0 72 38.5 110t120.5 53l56 10q12 2 32 5t28.5 4.5t21 5.5t17.5 9.5t9 15t4 23.5q0 54 -81 54q-52 0 -73 -16t-26 -58h-135q13 187 231 187q221 0 221 -166v-300q0 -37 32 -66v-17zM355 231v24
q-19 -9 -59 -17l-48 -9q-45 -8 -62.5 -22.5t-17.5 -44.5q0 -58 76 -58q53 0 82 33t29 94zM432 751q0 -62 -50 -106.5t-114 -44.5t-114 44.5t-50 106.5h80q0 -31 24 -47.5t60 -16.5t60 16.5t24 47.5h80z" />
    <glyph glyph-name="Aogonek" unicode="&#x104;" horiz-adv-x="722" 
d="M703 -230h-63q-66 0 -106.5 25.5t-40.5 77.5q0 76 56 127l-48 147h-273l-49 -147h-153l259 729h166l252 -729q-54 0 -94 -42q-21 -21 -21 -50q0 -48 52 -48h63v-90zM460 272l-95 285l-95 -285h190z" />
    <glyph glyph-name="aogonek" unicode="&#x105;" 
d="M524 -230h-63q-66 0 -106.5 25.5t-40.5 77.5q0 77 58 127q-16 20 -16 68q-74 -77 -164 -77q-71 0 -117.5 40t-46.5 115q0 72 38.5 110t120.5 53l56 10q12 2 32 5t28.5 4.5t21 5.5t17.5 9.5t9 15t4 23.5q0 54 -81 54q-52 0 -73 -16t-26 -58h-135q13 187 231 187
q221 0 221 -166v-300q0 -37 32 -66v-17h-23q-38 0 -65 -27t-27 -65q0 -48 52 -48h63v-90zM355 231v24q-19 -9 -59 -17l-48 -9q-45 -8 -62.5 -22.5t-17.5 -44.5q0 -58 76 -58q53 0 82 33t29 94z" />
    <glyph glyph-name="Cacute" unicode="&#x106;" horiz-adv-x="722" 
d="M685 249q-7 -124 -90.5 -192.5t-220.5 -68.5q-153 0 -241.5 100.5t-88.5 275.5q0 176 89.5 276.5t244.5 100.5q127 0 211 -68t93 -191h-143q-31 131 -156 131q-89 0 -139 -65.5t-50 -185.5q0 -119 48.5 -183.5t135.5 -64.5q148 0 161 135h146zM564 921l-135 -135h-106
l76 135h165z" />
    <glyph glyph-name="cacute" unicode="&#x107;" 
d="M522 187q-10 -87 -74 -141.5t-161 -54.5q-121 0 -187 71t-66 204q0 137 66.5 210t188.5 73q101 0 163.5 -56t69.5 -155h-134q-12 53 -34.5 75.5t-65.5 22.5q-114 0 -114 -170q0 -78 30 -120t84 -42q40 0 63 20t37 63h134zM465 752l-126 -154h-100l70 154h156z" />
    <glyph glyph-name="Ccircumflex" unicode="&#x108;" horiz-adv-x="722" 
d="M685 249q-7 -124 -90.5 -192.5t-220.5 -68.5q-153 0 -241.5 100.5t-88.5 275.5q0 176 89.5 276.5t244.5 100.5q127 0 211 -68t93 -191h-143q-31 131 -156 131q-89 0 -139 -65.5t-50 -185.5q0 -119 48.5 -183.5t135.5 -64.5q148 0 161 135h146zM567 787h-94l-98 70
l-99 -70h-91l130 135h128z" />
    <glyph glyph-name="ccircumflex" unicode="&#x109;" 
d="M522 187q-10 -87 -74 -141.5t-161 -54.5q-121 0 -187 71t-66 204q0 137 66.5 210t188.5 73q101 0 163.5 -56t69.5 -155h-134q-12 53 -34.5 75.5t-65.5 22.5q-114 0 -114 -170q0 -78 30 -120t84 -42q40 0 63 20t37 63h134zM458 598h-88l-82 77l-82 -77h-86l108 154h127z
" />
    <glyph glyph-name="Cdotaccent" unicode="&#x10a;" horiz-adv-x="722" 
d="M685 249q-7 -124 -90.5 -192.5t-220.5 -68.5q-153 0 -241.5 100.5t-88.5 275.5q0 176 89.5 276.5t244.5 100.5q127 0 211 -68t93 -191h-143q-31 131 -156 131q-89 0 -139 -65.5t-50 -185.5q0 -119 48.5 -183.5t135.5 -64.5q148 0 161 135h146zM447 784h-140v140h140v-140
z" />
    <glyph glyph-name="cdotaccent" unicode="&#x10b;" 
d="M522 187q-10 -87 -74 -141.5t-161 -54.5q-121 0 -187 71t-66 204q0 137 66.5 210t188.5 73q101 0 163.5 -56t69.5 -155h-134q-12 53 -34.5 75.5t-65.5 22.5q-114 0 -114 -170q0 -78 30 -120t84 -42q40 0 63 20t37 63h134zM359 605h-140v140h140v-140z" />
    <glyph glyph-name="Ccaron" unicode="&#x10c;" horiz-adv-x="722" 
d="M685 249q-7 -124 -90.5 -192.5t-220.5 -68.5q-153 0 -241.5 100.5t-88.5 275.5q0 176 89.5 276.5t244.5 100.5q127 0 211 -68t93 -191h-143q-31 131 -156 131q-89 0 -139 -65.5t-50 -185.5q0 -119 48.5 -183.5t135.5 -64.5q148 0 161 135h146zM568 922l-130 -135h-128
l-124 135h94l98 -70l99 70h91z" />
    <glyph glyph-name="ccaron" unicode="&#x10d;" 
d="M522 187q-10 -87 -74 -141.5t-161 -54.5q-121 0 -187 71t-66 204q0 137 66.5 210t188.5 73q101 0 163.5 -56t69.5 -155h-134q-12 53 -34.5 75.5t-65.5 22.5q-114 0 -114 -170q0 -78 30 -120t84 -42q40 0 63 20t37 63h134zM458 752l-108 -154h-127l-103 154h88l82 -77
l82 77h86z" />
    <glyph glyph-name="Dcaron" unicode="&#x10e;" horiz-adv-x="722" 
d="M681 365q0 -174 -89 -280q-72 -85 -230 -85h-285v729h285q84 0 138.5 -20t91.5 -64q89 -106 89 -280zM531 364q0 240 -169 240h-135v-479h135q169 0 169 239zM554 922l-130 -135h-128l-124 135h94l98 -70l99 70h91z" />
    <glyph glyph-name="dcaron" unicode="&#x10f;" horiz-adv-x="611" 
d="M545 0h-140v62q-54 -71 -149 -71q-104 0 -165.5 79.5t-61.5 198.5q0 122 65 201t162 79q98 0 149 -79v259h140v-729zM405 267q0 77 -32 121t-86 44q-53 0 -85.5 -44.5t-32.5 -118.5t32.5 -117.5t85.5 -43.5t85.5 43t32.5 116zM727 626q0 -61 -34.5 -101.5t-87.5 -42.5v46
q69 13 67 89h-67v112h122v-103z" />
    <glyph glyph-name="Dcroat" unicode="&#x110;" horiz-adv-x="722" 
d="M681 365q0 -81 -23.5 -154.5t-64.5 -125.5q-36 -45 -90.5 -65t-140.5 -20h-285v339h-77v80h77v310h285q86 0 140.5 -20t90.5 -64q41 -51 64.5 -125.5t23.5 -154.5zM537 364q0 115 -39 177.5t-136 62.5h-135v-185h150v-80h-150v-214h135q97 0 136 62.5t39 176.5z" />
    <glyph glyph-name="dcroat" unicode="&#x111;" horiz-adv-x="611" 
d="M605 596h-60v-596h-140v69q-52 -78 -149 -78t-162 78.5t-65 199.5q0 122 65 201t162 79q98 0 149 -79v126h-133v67h133v66h140v-66h60v-67zM405 267q0 77 -32 121t-86 44q-52 0 -85 -44.5t-33 -118.5t32.5 -117.5t85.5 -43.5t85.5 43t32.5 116z" />
    <glyph glyph-name="Emacron" unicode="&#x112;" horiz-adv-x="667" 
d="M624 0h-545v729h527v-125h-377v-165h349v-125h-349v-189h395v-125zM492 815h-299v79h299v-79z" />
    <glyph glyph-name="emacron" unicode="&#x113;" 
d="M525 250l-1 -17h-362q3 -75 31 -105t81 -30q90 0 107 54h138q-23 -78 -90 -119.5t-160 -41.5q-116 0 -181.5 71.5t-65.5 200.5q0 135 66.5 210.5t183.5 75.5q119 0 186 -79.5t67 -219.5zM379 326q-5 57 -34 86.5t-75 29.5q-92 0 -106 -116h215zM420 636h-299v79h299v-79z
" />
    <glyph glyph-name="Ebreve" unicode="&#x114;" horiz-adv-x="667" 
d="M624 0h-545v729h527v-125h-377v-165h349v-125h-349v-189h395v-125zM523 915q-12 -122 -182 -122q-81 0 -129.5 30t-49.5 92h71q8 -40 110 -40q103 0 109 40h71z" />
    <glyph glyph-name="ebreve" unicode="&#x115;" 
d="M525 250l-1 -17h-362q3 -75 31 -105t81 -30q90 0 107 54h138q-23 -78 -90 -119.5t-160 -41.5q-116 0 -181.5 71.5t-65.5 200.5q0 135 66.5 210.5t183.5 75.5q119 0 186 -79.5t67 -219.5zM379 326q-5 57 -34 86.5t-75 29.5q-92 0 -106 -116h215zM433 751q0 -62 -50 -106.5
t-114 -44.5t-114 44.5t-50 106.5h80q0 -31 24 -47.5t60 -16.5t60 16.5t24 47.5h80z" />
    <glyph glyph-name="Edotaccent" unicode="&#x116;" horiz-adv-x="667" 
d="M624 0h-545v729h527v-125h-377v-165h349v-125h-349v-189h395v-125zM414 784h-140v140h140v-140z" />
    <glyph glyph-name="edotaccent" unicode="&#x117;" 
d="M525 250l-1 -17h-362q3 -75 31 -105t81 -30q90 0 107 54h138q-23 -78 -90 -119.5t-160 -41.5q-116 0 -181.5 71.5t-65.5 200.5q0 135 66.5 210.5t183.5 75.5q119 0 186 -79.5t67 -219.5zM379 326q-5 57 -34 86.5t-75 29.5q-92 0 -106 -116h215zM342 605h-140v140h140
v-140z" />
    <glyph glyph-name="Eogonek" unicode="&#x118;" horiz-adv-x="667" 
d="M624 -230h-63q-66 0 -106.5 25.5t-40.5 77.5q0 34 16 62.5t57 64.5h-408v729h527v-125h-377v-165h349v-125h-349v-189h395v-125q-54 0 -94 -42q-21 -21 -21 -50q0 -48 52 -48h63v-90z" />
    <glyph glyph-name="eogonek" unicode="&#x119;" 
d="M525 250l-1 -17h-362q3 -75 31 -105t81 -30q90 0 107 54h138q-28 -94 -119 -135q-34 -15 -54.5 -44.5t-20.5 -64.5q0 -48 52 -48h63v-90h-63q-66 0 -106.5 25.5t-40.5 77.5q0 32 14 59t50 60q-8 -1 -25 -1q-116 0 -181.5 71.5t-65.5 200.5q0 135 66.5 210.5t183.5 75.5
q119 0 186 -79.5t67 -219.5zM379 326q-5 57 -34 86.5t-75 29.5q-92 0 -106 -116h215z" />
    <glyph glyph-name="Ecaron" unicode="&#x11a;" horiz-adv-x="667" 
d="M624 0h-545v729h527v-125h-377v-165h349v-125h-349v-189h395v-125zM535 922l-130 -135h-128l-124 135h94l98 -70l99 70h91z" />
    <glyph glyph-name="ecaron" unicode="&#x11b;" 
d="M525 250l-1 -17h-362q3 -75 31 -105t81 -30q90 0 107 54h138q-23 -78 -90 -119.5t-160 -41.5q-116 0 -181.5 71.5t-65.5 200.5q0 135 66.5 210.5t183.5 75.5q119 0 186 -79.5t67 -219.5zM379 326q-5 57 -34 86.5t-75 29.5q-92 0 -106 -116h215zM441 752l-108 -154h-127
l-103 154h88l82 -77l82 77h86z" />
    <glyph glyph-name="Gcircumflex" unicode="&#x11c;" horiz-adv-x="778" 
d="M711 0h-90l-18 100q-42 -58 -94.5 -85t-125.5 -27q-148 0 -244.5 106t-96.5 271q0 170 97.5 273t255.5 103q132 0 217 -66t99 -179h-141q-40 117 -174 117q-96 0 -150 -64.5t-54 -181.5q0 -112 58.5 -181.5t149.5 -69.5q69 0 123.5 42.5t61.5 108.5h-166v125h292v-392z
M586 787h-94l-98 70l-99 -70h-91l130 135h128z" />
    <glyph glyph-name="gcircumflex" unicode="&#x11d;" horiz-adv-x="611" 
d="M541 -18q0 -95 -67.5 -147.5t-189.5 -52.5q-109 0 -173 43t-66 110h145q17 -63 99 -63q53 0 86 30.5t33 79.5v80q-40 -40 -73 -55.5t-80 -15.5q-100 0 -160.5 74t-60.5 199t63.5 205t160.5 80q90 0 150 -92v83h133v-558zM410 266q0 74 -34.5 120t-87.5 46
q-51 0 -82.5 -45t-31.5 -121q0 -73 31 -115.5t81 -42.5q55 0 89.5 42.5t34.5 115.5zM475 598h-88l-82 77l-82 -77h-86l108 154h127z" />
    <glyph glyph-name="Gbreve" unicode="&#x11e;" horiz-adv-x="778" 
d="M711 0h-90l-18 100q-42 -58 -94.5 -85t-125.5 -27q-148 0 -244.5 106t-96.5 271q0 170 97.5 273t255.5 103q132 0 217 -66t99 -179h-141q-40 117 -174 117q-96 0 -150 -64.5t-54 -181.5q0 -112 58.5 -181.5t149.5 -69.5q69 0 123.5 42.5t61.5 108.5h-166v125h292v-392z
M575 915q-12 -122 -182 -122q-81 0 -129.5 30t-49.5 92h71q8 -40 110 -40q103 0 109 40h71z" />
    <glyph glyph-name="gbreve" unicode="&#x11f;" horiz-adv-x="611" 
d="M541 -18q0 -95 -67.5 -147.5t-189.5 -52.5q-109 0 -173 43t-66 110h145q17 -63 99 -63q53 0 86 30.5t33 79.5v80q-40 -40 -73 -55.5t-80 -15.5q-100 0 -160.5 74t-60.5 199t63.5 205t160.5 80q90 0 150 -92v83h133v-558zM410 266q0 74 -34.5 120t-87.5 46
q-51 0 -82.5 -45t-31.5 -121q0 -73 31 -115.5t81 -42.5q55 0 89.5 42.5t34.5 115.5zM467 751q0 -62 -50 -106.5t-114 -44.5t-114 44.5t-50 106.5h80q0 -31 24 -47.5t60 -16.5t60 16.5t24 47.5h80z" />
    <glyph glyph-name="Gdotaccent" unicode="&#x120;" horiz-adv-x="778" 
d="M711 0h-90l-18 100q-42 -58 -94.5 -85t-125.5 -27q-148 0 -244.5 106t-96.5 271q0 170 97.5 273t255.5 103q132 0 217 -66t99 -179h-141q-40 117 -174 117q-96 0 -150 -64.5t-54 -181.5q0 -112 58.5 -181.5t149.5 -69.5q69 0 123.5 42.5t61.5 108.5h-166v125h292v-392z
M466 784h-140v140h140v-140z" />
    <glyph glyph-name="gdotaccent" unicode="&#x121;" horiz-adv-x="611" 
d="M541 -18q0 -95 -67.5 -147.5t-189.5 -52.5q-109 0 -173 43t-66 110h145q17 -63 99 -63q53 0 86 30.5t33 79.5v80q-40 -40 -73 -55.5t-80 -15.5q-100 0 -160.5 74t-60.5 199t63.5 205t160.5 80q90 0 150 -92v83h133v-558zM410 266q0 74 -34.5 120t-87.5 46
q-51 0 -82.5 -45t-31.5 -121q0 -73 31 -115.5t81 -42.5q55 0 89.5 42.5t34.5 115.5zM376 605h-140v140h140v-140z" />
    <glyph glyph-name="Gcommaaccent" unicode="&#x122;" horiz-adv-x="778" 
d="M711 0h-90l-18 100q-42 -58 -94.5 -85t-125.5 -27q-148 0 -244.5 106t-96.5 271q0 170 97.5 273t255.5 103q132 0 217 -66t99 -179h-141q-40 117 -174 117q-96 0 -150 -64.5t-54 -181.5q0 -112 58.5 -181.5t149.5 -69.5q69 0 123.5 42.5t61.5 108.5h-166v125h292v-392z
M450 -163q0 -61 -34.5 -101.5t-87.5 -42.5v46q69 13 67 89h-67v112h122v-103z" />
    <glyph glyph-name="gcommaaccent" unicode="&#x123;" horiz-adv-x="611" 
d="M368 582h-122v103q0 61 34.5 101.5t87.5 42.5v-46q-69 -13 -67 -89h67v-112zM541 -18q0 -95 -67.5 -147.5t-189.5 -52.5q-109 0 -173 43t-66 110h145q17 -63 99 -63q53 0 86 30.5t33 79.5v80q-40 -40 -73 -55.5t-80 -15.5q-100 0 -160.5 74t-60.5 199t63.5 205t160.5 80
q90 0 150 -92v83h133v-558zM410 266q0 74 -34.5 120t-87.5 46q-51 0 -82.5 -45t-31.5 -121q0 -73 31 -115.5t81 -42.5q55 0 89.5 42.5t34.5 115.5z" />
    <glyph glyph-name="Hcircumflex" unicode="&#x124;" horiz-adv-x="722" 
d="M657 0h-150v331h-289v-331h-150v729h150v-273h289v273h150v-729zM554 787h-94l-98 70l-99 -70h-91l130 135h128z" />
    <glyph glyph-name="hcircumflex" unicode="&#x125;" horiz-adv-x="611" 
d="M541 0h-140v330q0 100 -86 100q-47 0 -77.5 -30t-30.5 -76v-324h-140v729h140v-267q58 87 158 87q80 0 128 -48t48 -139v-362zM497 787h-94l-98 70l-99 -70h-91l130 135h128z" />
    <glyph glyph-name="Hbar" unicode="&#x126;" horiz-adv-x="722" 
d="M732 549h-75v-549h-150v331h-289v-331h-150v549h-75v68h75v112h150v-112h289v112h150v-112h75v-68zM507 456v93h-289v-93h289z" />
    <glyph glyph-name="hbar" unicode="&#x127;" horiz-adv-x="664" 
d="M604 0h-140v330q0 100 -86 100q-47 0 -77.5 -30t-30.5 -76v-324h-140v526l-70 -22v72l70 21v132h140v-89l99 30v-71l-99 -30v-107q58 87 158 87q80 0 128 -48t48 -139v-362z" />
    <glyph glyph-name="Itilde" unicode="&#x128;" horiz-adv-x="278" 
d="M213 0h-150v729h150v-729zM317 918q-6 -127 -95 -127q-24 0 -55 12l-71 26q-18 6 -30 6q-18 0 -27 -10.5t-13 -34.5h-63q3 58 28 91t66 33q20 0 56 -13l71 -25q14 -6 34 -6q32 0 36 48h63z" />
    <glyph glyph-name="itilde" unicode="&#x129;" horiz-adv-x="278" 
d="M207 0h-140v540h140v-540zM317 739q-6 -127 -95 -127q-24 0 -55 12l-71 26q-18 6 -30 6q-18 0 -27 -10.5t-13 -34.5h-63q3 58 28 91t66 33q20 0 56 -13l71 -25q14 -6 34 -6q32 0 36 48h63z" />
    <glyph glyph-name="Imacron" unicode="&#x12a;" horiz-adv-x="278" 
d="M213 0h-150v729h150v-729zM287 815h-299v79h299v-79z" />
    <glyph glyph-name="imacron" unicode="&#x12b;" horiz-adv-x="278" 
d="M207 0h-140v540h140v-540zM287 636h-299v79h299v-79z" />
    <glyph glyph-name="Ibreve" unicode="&#x12c;" horiz-adv-x="278" 
d="M213 0h-150v729h150v-729zM318 915q-12 -122 -182 -122q-81 0 -129.5 30t-49.5 92h71q8 -40 110 -40q103 0 109 40h71z" />
    <glyph glyph-name="ibreve" unicode="&#x12d;" horiz-adv-x="278" 
d="M207 0h-140v540h140v-540zM300 751q0 -62 -50 -106.5t-114 -44.5t-114 44.5t-50 106.5h80q0 -31 24 -47.5t60 -16.5t60 16.5t24 47.5h80z" />
    <glyph glyph-name="Iogonek" unicode="&#x12e;" horiz-adv-x="278" 
d="M233 -230h-63q-66 0 -106.5 25.5t-40.5 77.5q0 34 16 62.5t57 64.5h-33v729h150v-729q-45 -11 -74 -42q-21 -21 -21 -50q0 -48 52 -48h63v-90z" />
    <glyph glyph-name="iogonek" unicode="&#x12f;" horiz-adv-x="278" 
d="M237 -230h-63q-66 0 -106.5 25.5t-40.5 77.5q0 34 16 62.5t57 64.5h-33v540h140v-540q-38 -14 -64 -42q-21 -21 -21 -50q0 -48 52 -48h63v-90zM209 605h-140v140h140v-140z" />
    <glyph glyph-name="Idotaccent" unicode="&#x130;" horiz-adv-x="278" 
d="M213 0h-150v729h150v-729zM209 784h-140v140h140v-140z" />
    <glyph glyph-name="dotlessi" unicode="&#x131;" horiz-adv-x="278" 
d="M207 0h-140v540h140v-540z" />
    <glyph glyph-name="Jcircumflex" unicode="&#x134;" 
d="M486 201q0 -102 -61 -157.5t-173 -55.5q-105 0 -166.5 57.5t-61.5 163.5v61h150v-59q0 -50 19 -72.5t62 -22.5q39 0 60 22t21 63v528h150v-528zM602 787h-94l-98 70l-99 -70h-91l130 135h128z" />
    <glyph glyph-name="jcircumflex" unicode="&#x135;" horiz-adv-x="278" 
d="M210 -94q0 -66 -29 -95t-94 -29q-36 0 -83 5v112q13 -4 25 -4q23 0 32 9.5t9 32.5v603h140v-634zM309 598h-88l-82 77l-82 -77h-86l108 154h127z" />
    <glyph glyph-name="Kcommaaccent" unicode="&#x136;" horiz-adv-x="722" 
d="M717 0h-179l-239 322l-75 -78v-244h-150v729h150v-320l285 320h177l-291 -314zM416 -163q0 -61 -34.5 -101.5t-87.5 -42.5v46q69 13 67 89h-67v112h122v-103z" />
    <glyph glyph-name="kcommaaccent" unicode="&#x137;" 
d="M548 0h-164l-129 238l-56 -61v-177h-140v729h140v-399l177 210h159l-184 -204zM333 -163q0 -61 -34.5 -101.5t-87.5 -42.5v46q69 13 67 89h-67v112h122v-103z" />
    <glyph glyph-name="Lacute" unicode="&#x139;" horiz-adv-x="611" 
d="M579 0h-499v729h150v-604h349v-125zM322 921l-135 -135h-106l76 135h165z" />
    <glyph glyph-name="lacute" unicode="&#x13a;" horiz-adv-x="278" 
d="M207 0h-140v729h140v-729zM309 921l-135 -135h-106l76 135h165z" />
    <glyph glyph-name="Lcommaaccent" unicode="&#x13b;" horiz-adv-x="611" 
d="M579 0h-499v729h150v-604h349v-125zM385 -163q0 -61 -34.5 -101.5t-87.5 -42.5v46q69 13 67 89h-67v112h122v-103z" />
    <glyph glyph-name="lcommaaccent" unicode="&#x13c;" horiz-adv-x="278" 
d="M207 0h-140v729h140v-729zM194 -163q0 -61 -34.5 -101.5t-87.5 -42.5v46q69 13 67 89h-67v112h122v-103z" />
    <glyph glyph-name="Lcaron" unicode="&#x13d;" horiz-adv-x="611" 
d="M579 0h-499v729h150v-604h349v-125zM412 626q0 -61 -34.5 -101.5t-87.5 -42.5v46q69 13 67 89h-67v112h122v-103z" />
    <glyph glyph-name="lcaron" unicode="&#x13e;" horiz-adv-x="278" 
d="M207 0h-140v729h140v-729zM389 626q0 -61 -34.5 -101.5t-87.5 -42.5v46q69 13 67 89h-67v112h122v-103z" />
    <glyph glyph-name="Ldot" unicode="&#x13f;" horiz-adv-x="611" 
d="M579 0h-499v729h150v-604h349v-125zM531 304h-140v140h140v-140z" />
    <glyph glyph-name="ldot" unicode="&#x140;" horiz-adv-x="400" 
d="M207 0h-140v729h140v-729zM407 304h-140v140h140v-140z" />
    <glyph glyph-name="Lslash" unicode="&#x141;" horiz-adv-x="716" 
d="M649 0h-499v217l-116 -70v133l116 71v378h150v-297l210 128v-134l-210 -127v-174h349v-125z" />
    <glyph glyph-name="lslash" unicode="&#x142;" horiz-adv-x="418" 
d="M389 454l-112 -82v-372h-140v279l-105 -77v123l105 77v327h140v-234l112 82v-123z" />
    <glyph glyph-name="Nacute" unicode="&#x143;" horiz-adv-x="722" 
d="M661 0h-150l-293 504v-504h-150v729h154l289 -496v496h150v-729zM549 921l-135 -135h-106l76 135h165z" />
    <glyph glyph-name="nacute" unicode="&#x144;" horiz-adv-x="611" 
d="M546 0h-140v333q0 97 -90 97q-51 0 -82 -29t-31 -77v-324h-140v540h140v-78q58 87 162 87q86 0 133.5 -49t47.5 -138v-362zM482 752l-126 -154h-100l70 154h156z" />
    <glyph glyph-name="Ncommaaccent" unicode="&#x145;" horiz-adv-x="722" 
d="M661 0h-150l-293 504v-504h-150v729h154l289 -496v496h150v-729zM416 -163q0 -61 -34.5 -101.5t-87.5 -42.5v46q69 13 67 89h-67v112h122v-103z" />
    <glyph glyph-name="ncommaaccent" unicode="&#x146;" horiz-adv-x="611" 
d="M546 0h-140v333q0 97 -90 97q-51 0 -82 -29t-31 -77v-324h-140v540h140v-78q58 87 162 87q86 0 133.5 -49t47.5 -138v-362zM361 -163q0 -61 -34.5 -101.5t-87.5 -42.5v46q69 13 67 89h-67v112h122v-103z" />
    <glyph glyph-name="Ncaron" unicode="&#x147;" horiz-adv-x="722" 
d="M661 0h-150l-293 504v-504h-150v729h154l289 -496v496h150v-729zM553 922l-130 -135h-128l-124 135h94l98 -70l99 70h91z" />
    <glyph glyph-name="ncaron" unicode="&#x148;" horiz-adv-x="611" 
d="M546 0h-140v333q0 97 -90 97q-51 0 -82 -29t-31 -77v-324h-140v540h140v-78q58 87 162 87q86 0 133.5 -49t47.5 -138v-362zM475 752l-108 -154h-127l-103 154h88l82 -77l82 77h86z" />
    <glyph glyph-name="Eng" unicode="&#x14a;" horiz-adv-x="722" 
d="M661 -40q0 -102 -61 -157.5t-173 -55.5q-101 0 -162.5 53.5t-65.5 152.5h151q2 -41 21.5 -59.5t58.5 -18.5q33 0 57 23t24 55v47l-293 504v-504h-150v729h154l289 -496v496h150v-769z" />
    <glyph glyph-name="eng" unicode="&#x14b;" horiz-adv-x="611" 
d="M546 -94q0 -66 -29 -95t-94 -29q-36 0 -83 5v112q13 -4 25 -4q23 0 32 9.5t9 32.5v396q0 97 -90 97q-51 0 -82 -29t-31 -77v-324h-140v540h140v-78q58 87 162 87q86 0 133.5 -49t47.5 -138v-456z" />
    <glyph glyph-name="Omacron" unicode="&#x14c;" horiz-adv-x="778" 
d="M742 360q0 -162 -97 -267t-254 -105q-159 0 -255 105.5t-96 271.5q0 161 96.5 268.5t253.5 107.5q158 0 255 -107t97 -274zM592 361q0 114 -54.5 183t-146.5 69q-90 0 -145.5 -68.5t-55.5 -179.5q0 -114 55 -181.5t146 -67.5q90 0 145.5 67t55.5 178zM539 815h-299v79
h299v-79z" />
    <glyph glyph-name="omacron" unicode="&#x14d;" horiz-adv-x="611" 
d="M569 266q0 -129 -71.5 -202t-195.5 -73q-125 0 -196 73t-71 206q0 132 71 205.5t195 73.5q128 0 198 -73.5t70 -209.5zM429 268q0 79 -34.5 123.5t-92.5 44.5t-92.5 -44.5t-34.5 -121.5t34.5 -121.5t92.5 -44.5q57 0 92 44.5t35 119.5zM454 636h-299v79h299v-79z" />
    <glyph glyph-name="Obreve" unicode="&#x14e;" horiz-adv-x="778" 
d="M742 360q0 -162 -97 -267t-254 -105q-159 0 -255 105.5t-96 271.5q0 161 96.5 268.5t253.5 107.5q158 0 255 -107t97 -274zM592 361q0 114 -54.5 183t-146.5 69q-90 0 -145.5 -68.5t-55.5 -179.5q0 -114 55 -181.5t146 -67.5q90 0 145.5 67t55.5 178zM570 915
q-12 -122 -182 -122q-81 0 -129.5 30t-49.5 92h71q8 -40 110 -40q103 0 109 40h71z" />
    <glyph glyph-name="obreve" unicode="&#x14f;" horiz-adv-x="611" 
d="M569 266q0 -129 -71.5 -202t-195.5 -73q-125 0 -196 73t-71 206q0 132 71 205.5t195 73.5q128 0 198 -73.5t70 -209.5zM429 268q0 79 -34.5 123.5t-92.5 44.5t-92.5 -44.5t-34.5 -121.5t34.5 -121.5t92.5 -44.5q57 0 92 44.5t35 119.5zM467 751q0 -62 -50 -106.5
t-114 -44.5t-114 44.5t-50 106.5h80q0 -31 24 -47.5t60 -16.5t60 16.5t24 47.5h80z" />
    <glyph glyph-name="Ohungarumlaut" unicode="&#x150;" horiz-adv-x="778" 
d="M742 360q0 -162 -97 -267t-254 -105q-159 0 -255 105.5t-96 271.5q0 161 96.5 268.5t253.5 107.5q158 0 255 -107t97 -274zM592 361q0 114 -54.5 183t-146.5 69q-90 0 -145.5 -68.5t-55.5 -179.5q0 -114 55 -181.5t146 -67.5q90 0 145.5 67t55.5 178zM445 941l-111 -154
h-85l70 154h126zM643 941l-111 -154h-85l70 154h126z" />
    <glyph glyph-name="ohungarumlaut" unicode="&#x151;" horiz-adv-x="611" 
d="M569 266q0 -129 -71.5 -202t-195.5 -73q-125 0 -196 73t-71 206q0 132 71 205.5t195 73.5q128 0 198 -73.5t70 -209.5zM429 268q0 79 -34.5 123.5t-92.5 44.5t-92.5 -44.5t-34.5 -121.5t34.5 -121.5t92.5 -44.5q57 0 92 44.5t35 119.5zM361 752l-111 -154h-85l70 154h126
zM559 752l-111 -154h-85l70 154h126z" />
    <glyph glyph-name="OE" unicode="&#x152;" horiz-adv-x="1000" 
d="M970 0h-490v73q-37 -46 -70.5 -64t-84.5 -18q-131 0 -214 101t-83 267q0 169 84 275.5t217 106.5q48 0 81.5 -14.5t69.5 -49.5v52h471v-125h-327v-165h299v-125h-299v-189h346v-125zM474 192v348q-42 73 -118 73q-80 0 -129 -69.5t-49 -184.5q0 -113 48 -176.5t129 -63.5
q77 0 119 73z" />
    <glyph glyph-name="oe" unicode="&#x153;" horiz-adv-x="944" 
d="M920 250q0 -12 -1 -24h-362q1 -71 29.5 -99.5t84.5 -28.5q35 0 65 16.5t40 37.5h138q-25 -71 -93 -116t-157 -45q-113 0 -179 75q-77 -75 -195 -75q-124 0 -195.5 74t-71.5 198q0 133 71 209.5t196 76.5q122 0 195 -76q65 76 180 76q121 0 188 -79.5t67 -219.5zM417 261
q0 80 -34.5 127.5t-92.5 47.5q-57 0 -92 -48t-35 -125q0 -68 35.5 -113.5t91.5 -45.5q55 0 91 45.5t36 111.5zM774 319q-7 62 -35.5 92.5t-72.5 30.5q-96 0 -107 -123h215z" />
    <glyph glyph-name="Racute" unicode="&#x154;" horiz-adv-x="722" 
d="M677 0h-161q-14 26 -18.5 50t-4.5 75l2 77q0 46 -22 66.5t-71 20.5h-172v-289h-150v729h391q94 0 145 -54.5t51 -142.5q0 -132 -123 -180q27 -11 40 -17.5t26.5 -21.5t18 -27t9 -44t5.5 -63t2 -92q0 -42 32 -60v-27zM517 511q0 49 -23 71t-83 22h-181v-190h181
q61 0 83.5 23t22.5 74zM549 921l-135 -135h-106l76 135h165z" />
    <glyph glyph-name="racute" unicode="&#x155;" horiz-adv-x="389" 
d="M370 406q-25 4 -44 4q-123 0 -123 -123v-287h-140v540h140v-106q22 55 62 85t88 30q9 0 17 -1v-142zM379 752l-126 -154h-100l70 154h156z" />
    <glyph glyph-name="Rcommaaccent" unicode="&#x156;" horiz-adv-x="722" 
d="M677 0h-161q-14 26 -18.5 50t-4.5 75l2 77q0 46 -22 66.5t-71 20.5h-172v-289h-150v729h391q94 0 145 -54.5t51 -142.5q0 -132 -123 -180q27 -11 40 -17.5t26.5 -21.5t18 -27t9 -44t5.5 -63t2 -92q0 -42 32 -60v-27zM517 511q0 49 -23 71t-83 22h-181v-190h181
q61 0 83.5 23t22.5 74zM416 -163q0 -61 -34.5 -101.5t-87.5 -42.5v46q69 13 67 89h-67v112h122v-103z" />
    <glyph glyph-name="rcommaaccent" unicode="&#x157;" horiz-adv-x="389" 
d="M370 406q-25 4 -44 4q-123 0 -123 -123v-287h-140v540h140v-106q22 55 62 85t88 30q9 0 17 -1v-142zM188 -163q0 -61 -34.5 -101.5t-87.5 -42.5v46q69 13 67 89h-67v112h122v-103z" />
    <glyph glyph-name="Rcaron" unicode="&#x158;" horiz-adv-x="722" 
d="M677 0h-161q-14 26 -18.5 50t-4.5 75l2 77q0 46 -22 66.5t-71 20.5h-172v-289h-150v729h391q94 0 145 -54.5t51 -142.5q0 -132 -123 -180q27 -11 40 -17.5t26.5 -21.5t18 -27t9 -44t5.5 -63t2 -92q0 -42 32 -60v-27zM517 511q0 49 -23 71t-83 22h-181v-190h181
q61 0 83.5 23t22.5 74zM553 922l-130 -135h-128l-124 135h94l98 -70l99 70h91z" />
    <glyph glyph-name="rcaron" unicode="&#x159;" horiz-adv-x="389" 
d="M370 406q-25 4 -44 4q-123 0 -123 -123v-287h-140v540h140v-106q22 55 62 85t88 30q9 0 17 -1v-142zM372 752l-108 -154h-127l-103 154h88l82 -77l82 77h86z" />
    <glyph glyph-name="Sacute" unicode="&#x15a;" horiz-adv-x="667" 
d="M633 219q0 -110 -78.5 -170.5t-220.5 -60.5q-141 0 -221.5 62.5t-80.5 178.5h146q0 -58 43.5 -89.5t120.5 -31.5q69 0 108 24t39 69q0 43 -30 64t-107 36l-102 20q-111 22 -158 66.5t-47 129.5q0 107 72.5 165.5t203.5 58.5q135 0 210.5 -60t75.5 -174h-140
q0 55 -40.5 84.5t-112.5 29.5q-58 0 -92 -24.5t-34 -65.5q0 -40 29 -59.5t109 -35.5l114 -22q102 -20 147.5 -65t45.5 -130zM516 921l-135 -135h-106l76 135h165z" />
    <glyph glyph-name="sacute" unicode="&#x15b;" 
d="M520 160q0 -82 -61 -125.5t-175 -43.5q-249 0 -255 180h137q9 -41 34 -55.5t76 -14.5q104 0 104 46q0 22 -47 37l-167 52q-71 22 -94.5 51t-23.5 82q0 83 59.5 131.5t162.5 48.5q109 0 171 -48.5t64 -134.5h-135q-1 73 -101 73q-37 0 -59 -13.5t-22 -36.5q0 -17 10 -25.5
t39 -16.5l177 -51q106 -31 106 -129v-7zM454 752l-126 -154h-100l70 154h156z" />
    <glyph glyph-name="Scircumflex" unicode="&#x15c;" horiz-adv-x="667" 
d="M633 219q0 -110 -78.5 -170.5t-220.5 -60.5q-141 0 -221.5 62.5t-80.5 178.5h146q0 -58 43.5 -89.5t120.5 -31.5q69 0 108 24t39 69q0 43 -30 64t-107 36l-102 20q-111 22 -158 66.5t-47 129.5q0 107 72.5 165.5t203.5 58.5q135 0 210.5 -60t75.5 -174h-140
q0 55 -40.5 84.5t-112.5 29.5q-58 0 -92 -24.5t-34 -65.5q0 -40 29 -59.5t109 -35.5l114 -22q102 -20 147.5 -65t45.5 -130zM519 787h-94l-98 70l-99 -70h-91l130 135h128z" />
    <glyph glyph-name="scircumflex" unicode="&#x15d;" 
d="M520 160q0 -82 -61 -125.5t-175 -43.5q-249 0 -255 180h137q9 -41 34 -55.5t76 -14.5q104 0 104 46q0 22 -47 37l-167 52q-71 22 -94.5 51t-23.5 82q0 83 59.5 131.5t162.5 48.5q109 0 171 -48.5t64 -134.5h-135q-1 73 -101 73q-37 0 -59 -13.5t-22 -36.5q0 -17 10 -25.5
t39 -16.5l177 -51q106 -31 106 -129v-7zM447 598h-88l-82 77l-82 -77h-86l108 154h127z" />
    <glyph glyph-name="Scedilla" unicode="&#x15e;" horiz-adv-x="667" 
d="M633 219q0 -105 -71 -164.5t-200 -65.5l-19 -39h40q35 0 55.5 -21.5t20.5 -55.5q0 -46 -34 -74t-95 -28q-55 0 -138 28l19 61q69 -30 105 -30q24 0 40.5 12t16.5 29q0 31 -51 31h-64l41 87q-125 8 -196 70t-71 170h146q0 -58 43.5 -89.5t120.5 -31.5q69 0 108 24t39 69
q0 43 -30 64t-107 36l-102 20q-111 22 -158 66.5t-47 129.5q0 107 72.5 165.5t203.5 58.5q135 0 210.5 -60t75.5 -174h-140q0 55 -40.5 84.5t-112.5 29.5q-58 0 -92 -24.5t-34 -65.5q0 -40 29 -59.5t109 -35.5l114 -22q102 -20 147.5 -65t45.5 -130z" />
    <glyph glyph-name="scedilla" unicode="&#x15f;" 
d="M520 160q0 -79 -57 -122.5t-165 -46.5l-20 -41h40q35 0 55.5 -21.5t20.5 -55.5q0 -46 -34 -74t-95 -28q-55 0 -138 28l19 61q69 -30 105 -30q24 0 40.5 12t16.5 29q0 31 -51 31h-64l43 91q-201 17 -207 178h137q9 -41 34 -55.5t76 -14.5q104 0 104 46q0 22 -47 37
l-167 52q-71 22 -94.5 51t-23.5 82q0 83 59.5 131.5t162.5 48.5q109 0 171 -48.5t64 -134.5h-135q-1 73 -101 73q-37 0 -59 -13.5t-22 -36.5q0 -17 10 -25.5t39 -16.5l177 -51q106 -31 106 -129v-7z" />
    <glyph glyph-name="Scaron" unicode="&#x160;" horiz-adv-x="667" 
d="M633 219q0 -110 -78.5 -170.5t-220.5 -60.5q-141 0 -221.5 62.5t-80.5 178.5h146q0 -58 43.5 -89.5t120.5 -31.5q69 0 108 24t39 69q0 43 -30 64t-107 36l-102 20q-111 22 -158 66.5t-47 129.5q0 107 72.5 165.5t203.5 58.5q135 0 210.5 -60t75.5 -174h-140
q0 55 -40.5 84.5t-112.5 29.5q-58 0 -92 -24.5t-34 -65.5q0 -40 29 -59.5t109 -35.5l114 -22q102 -20 147.5 -65t45.5 -130zM520 922l-130 -135h-128l-124 135h94l98 -70l99 70h91z" />
    <glyph glyph-name="scaron" unicode="&#x161;" 
d="M520 160q0 -82 -61 -125.5t-175 -43.5q-249 0 -255 180h137q9 -41 34 -55.5t76 -14.5q104 0 104 46q0 22 -47 37l-167 52q-71 22 -94.5 51t-23.5 82q0 83 59.5 131.5t162.5 48.5q109 0 171 -48.5t64 -134.5h-135q-1 73 -101 73q-37 0 -59 -13.5t-22 -36.5q0 -17 10 -25.5
t39 -16.5l177 -51q106 -31 106 -129v-7zM447 752l-108 -154h-127l-103 154h88l82 -77l82 77h86z" />
    <glyph glyph-name="Tcedilla" unicode="&#x162;" horiz-adv-x="611" 
d="M598 604h-213v-604h-52l-25 -50h40q35 0 55.5 -21.5t20.5 -55.5q0 -46 -34 -74t-95 -28q-55 0 -138 28l19 61q69 -30 105 -30q24 0 40.5 12t16.5 29q0 31 -51 31h-64l47 98h-35v604h-221v125h584v-125z" />
    <glyph glyph-name="tcedilla" unicode="&#x163;" horiz-adv-x="333" 
d="M309 -127q0 -46 -34 -74t-95 -28q-55 0 -138 28l19 61q69 -30 105 -30q24 0 40.5 12t16.5 29q0 31 -51 31h-64l48 102q-73 21 -73 112v320h-69v93h69v145h140v-145h78v-93h-78v-282q0 -36 9 -47.5t37 -11.5q11 0 32 3v-98q-6 0 -34.5 -2t-46.5 -2h-4l-23 -46h40
q35 0 55.5 -21.5t20.5 -55.5z" />
    <glyph glyph-name="Tcaron" unicode="&#x164;" horiz-adv-x="611" 
d="M598 604h-213v-604h-150v604h-221v125h584v-125zM498 922l-130 -135h-128l-124 135h94l98 -70l99 70h91z" />
    <glyph glyph-name="tcaron" unicode="&#x165;" horiz-adv-x="333" 
d="M301 0q-6 0 -34.5 -2t-46.5 -2q-70 0 -103.5 28.5t-33.5 91.5v320h-69v93h69v145h140v-145h78v-93h-78v-282q0 -36 9 -47.5t37 -11.5q11 0 32 3v-98zM375 714q0 -61 -34.5 -101.5t-87.5 -42.5v46q69 13 67 89h-67v112h122v-103z" />
    <glyph glyph-name="Utilde" unicode="&#x168;" horiz-adv-x="722" 
d="M654 246q0 -125 -79.5 -191.5t-209.5 -66.5t-209.5 66.5t-79.5 191.5v483h150v-483q0 -130 139 -130t139 130v483h150v-483zM540 918q-6 -127 -95 -127q-23 0 -55 12l-71 26q-18 6 -30 6q-18 0 -27 -10.5t-13 -34.5h-63q3 58 28 91t66 33q20 0 56 -13l71 -25q14 -6 34 -6
q31 0 36 48h63z" />
    <glyph glyph-name="utilde" unicode="&#x169;" horiz-adv-x="611" 
d="M541 0h-140v71q-60 -80 -162 -80q-86 0 -133.5 49t-47.5 138v362h140v-333q0 -97 90 -97q51 0 82 29t31 77v324h140v-540zM484 739q-6 -127 -95 -127q-23 0 -55 12l-71 26q-18 6 -30 6q-18 0 -27 -10.5t-13 -34.5h-63q3 58 28 91t66 33q20 0 56 -13l71 -25q14 -6 34 -6
q31 0 36 48h63z" />
    <glyph glyph-name="Umacron" unicode="&#x16a;" horiz-adv-x="722" 
d="M654 246q0 -125 -79.5 -191.5t-209.5 -66.5t-209.5 66.5t-79.5 191.5v483h150v-483q0 -130 139 -130t139 130v483h150v-483zM510 815h-299v79h299v-79z" />
    <glyph glyph-name="umacron" unicode="&#x16b;" horiz-adv-x="611" 
d="M541 0h-140v71q-60 -80 -162 -80q-86 0 -133.5 49t-47.5 138v362h140v-333q0 -97 90 -97q51 0 82 29t31 77v324h140v-540zM454 636h-299v79h299v-79z" />
    <glyph glyph-name="Ubreve" unicode="&#x16c;" horiz-adv-x="722" 
d="M654 246q0 -125 -79.5 -191.5t-209.5 -66.5t-209.5 66.5t-79.5 191.5v483h150v-483q0 -130 139 -130t139 130v483h150v-483zM541 915q-12 -122 -182 -122q-81 0 -129.5 30t-49.5 92h71q8 -40 110 -40q103 0 109 40h71z" />
    <glyph glyph-name="ubreve" unicode="&#x16d;" horiz-adv-x="611" 
d="M541 0h-140v71q-60 -80 -162 -80q-86 0 -133.5 49t-47.5 138v362h140v-333q0 -97 90 -97q51 0 82 29t31 77v324h140v-540zM467 751q0 -62 -50 -106.5t-114 -44.5t-114 44.5t-50 106.5h80q0 -31 24 -47.5t60 -16.5t60 16.5t24 47.5h80z" />
    <glyph glyph-name="Uring" unicode="&#x16e;" horiz-adv-x="722" 
d="M654 246q0 -125 -79.5 -191.5t-209.5 -66.5t-209.5 66.5t-79.5 191.5v483h150v-483q0 -130 139 -130t139 130v483h150v-483zM461 862q0 -40 -29.5 -69t-69.5 -29q-42 0 -71 29t-29 70t29 70t72 29q41 0 69.5 -29t28.5 -71zM408 863q0 19 -13 32.5t-32 13.5
q-20 0 -34 -13.5t-14 -32.5t14 -32.5t34 -13.5q18 0 31.5 13.5t13.5 32.5z" />
    <glyph glyph-name="uring" unicode="&#x16f;" horiz-adv-x="611" 
d="M541 0h-140v71q-60 -80 -162 -80q-86 0 -133.5 49t-47.5 138v362h140v-333q0 -97 90 -97q51 0 82 29t31 77v324h140v-540zM405 674q0 -40 -29.5 -69t-69.5 -29q-42 0 -71 29t-29 70t29 70t72 29q41 0 69.5 -29t28.5 -71zM352 675q0 19 -13 32.5t-32 13.5q-20 0 -34 -13.5
t-14 -32.5t14 -32.5t34 -13.5q18 0 31.5 13.5t13.5 32.5z" />
    <glyph glyph-name="Uhungarumlaut" unicode="&#x170;" horiz-adv-x="722" 
d="M654 246q0 -125 -79.5 -191.5t-209.5 -66.5t-209.5 66.5t-79.5 191.5v483h150v-483q0 -130 139 -130t139 130v483h150v-483zM416 941l-111 -154h-85l70 154h126zM614 941l-111 -154h-85l70 154h126z" />
    <glyph glyph-name="uhungarumlaut" unicode="&#x171;" horiz-adv-x="611" 
d="M541 0h-140v71q-60 -80 -162 -80q-86 0 -133.5 49t-47.5 138v362h140v-333q0 -97 90 -97q51 0 82 29t31 77v324h140v-540zM361 752l-111 -154h-85l70 154h126zM559 752l-111 -154h-85l70 154h126z" />
    <glyph glyph-name="Uogonek" unicode="&#x172;" horiz-adv-x="722" 
d="M654 246q0 -88 -40.5 -147.5t-112.5 -87.5q-38 -15 -63.5 -41.5t-25.5 -61.5q0 -48 52 -48h63v-90h-63q-66 0 -106.5 25.5t-40.5 77.5q0 58 60 115h-12q-130 0 -209.5 66.5t-79.5 191.5v483h150v-483q0 -130 139 -130t139 130v483h150v-483z" />
    <glyph glyph-name="uogonek" unicode="&#x173;" horiz-adv-x="611" 
d="M551 -230h-63q-66 0 -106.5 25.5t-40.5 77.5q0 78 60 127v71q-60 -80 -162 -80q-86 0 -133.5 49t-47.5 138v362h140v-333q0 -97 90 -97q51 0 82 29t31 77v324h140v-540q-50 -6 -84 -42q-21 -21 -21 -50q0 -48 52 -48h63v-90z" />
    <glyph glyph-name="Wcircumflex" unicode="&#x174;" horiz-adv-x="944" 
d="M932 729l-202 -729h-135l-122 569l-119 -569h-135l-206 729h159l113 -546l113 546h148l118 -547l109 547h159zM663 787h-94l-98 70l-99 -70h-91l130 135h128z" />
    <glyph glyph-name="wcircumflex" unicode="&#x175;" horiz-adv-x="778" 
d="M766 540l-153 -540h-145l-81 381l-86 -381h-144l-152 540h145l86 -378l82 378h140l81 -378l82 378h145zM558 598h-88l-82 77l-82 -77h-86l108 154h127z" />
    <glyph glyph-name="Ycircumflex" unicode="&#x176;" horiz-adv-x="667" 
d="M650 729l-231 -459v-270h-150v270l-242 459h167l149 -322l139 322h168zM535 787h-94l-98 70l-99 -70h-91l130 135h128z" />
    <glyph glyph-name="ycircumflex" unicode="&#x177;" 
d="M538 540l-222 -639q-26 -73 -65 -96.5t-115 -23.5q-22 0 -50 4v105q22 -6 37 -6q37 0 62 26t25 64v3l-201 563h154l119 -393l112 393h144zM447 598h-88l-82 77l-82 -77h-86l108 154h127z" />
    <glyph glyph-name="Ydieresis" unicode="&#x178;" horiz-adv-x="667" 
d="M650 729l-231 -459v-270h-150v270l-242 459h167l149 -322l139 322h168zM310 797h-126v115h126v-115zM505 797h-126v115h126v-115z" />
    <glyph glyph-name="Zacute" unicode="&#x179;" horiz-adv-x="611" 
d="M578 0h-548v125l373 479h-373v125h548v-125l-372 -479h372v-125zM492 921l-135 -135h-106l76 135h165z" />
    <glyph glyph-name="zacute" unicode="&#x17a;" horiz-adv-x="500" 
d="M468 0h-447v113l267 314h-249v113h420v-113l-265 -314h274v-113zM426 752l-126 -154h-100l70 154h156z" />
    <glyph glyph-name="Zdotaccent" unicode="&#x17b;" horiz-adv-x="611" 
d="M578 0h-548v125l373 479h-373v125h548v-125l-372 -479h372v-125zM375 784h-140v140h140v-140z" />
    <glyph glyph-name="zdotaccent" unicode="&#x17c;" horiz-adv-x="500" 
d="M468 0h-447v113l267 314h-249v113h420v-113l-265 -314h274v-113zM320 605h-140v140h140v-140z" />
    <glyph glyph-name="Zcaron" unicode="&#x17d;" horiz-adv-x="611" 
d="M578 0h-548v125l373 479h-373v125h548v-125l-372 -479h372v-125zM496 922l-130 -135h-128l-124 135h94l98 -70l99 70h91z" />
    <glyph glyph-name="zcaron" unicode="&#x17e;" horiz-adv-x="500" 
d="M468 0h-447v113l267 314h-249v113h420v-113l-265 -314h274v-113zM419 752l-108 -154h-127l-103 154h88l82 -77l82 77h86z" />
    <glyph glyph-name="longs" unicode="&#x17f;" horiz-adv-x="333" 
d="M308 621q-18 3 -40 3q-38 0 -38 -42v-582h-140v594q0 135 138 135q41 0 80 -3v-105z" />
    <glyph glyph-name="Ereversed" unicode="&#x18e;" horiz-adv-x="667" 
d="M624 0h-545v125h395v189h-349v125h349v165h-377v125h527v-729z" />
    <glyph glyph-name="florin" unicode="&#x192;" 
d="M535 727l-20 -115q-36 16 -55 16q-58 0 -76 -107l-7 -41h123v-97h-137l-59 -382q-18 -119 -64.5 -170t-128.5 -51q-47 0 -90 22l24 115q35 -21 57 -21q26 0 40.5 24.5t24.5 86.5l60 376h-123v97h138l11 59q17 106 62 155.5t124 49.5q40 0 96 -17z" />
    <glyph glyph-name="Ohorn" unicode="&#x1a0;" horiz-adv-x="812" 
d="M789 745q0 -126 -91 -190q44 -93 44 -194q0 -77 -27.5 -151.5t-74.5 -124.5q-87 -94 -249 -94t-249 94q-49 52 -75.5 125.5t-26.5 155.5q0 164 102 274q93 101 248 101q156 0 250 -101q16 -18 23 -28q56 47 56 117h-65v125h135v-109zM592 362q0 118 -54 184.5t-147 66.5
q-91 0 -146 -66.5t-55 -180.5t55 -180.5t146 -66.5t146 66t55 177z" />
    <glyph glyph-name="ohorn" unicode="&#x1a1;" horiz-adv-x="680" 
d="M650 556q0 -128 -94 -192q13 -46 13 -98q0 -129 -71.5 -202t-195.5 -73q-125 0 -196 73t-71 206q0 132 71 205.5t195 73.5q160 0 229 -120q50 46 50 111h-65v125h135v-109zM429 268q0 79 -34.5 123.5t-92.5 44.5t-92.5 -44.5t-34.5 -121.5t34.5 -121.5t92.5 -44.5
q57 0 92 44.5t35 119.5z" />
    <glyph glyph-name="Uhorn" unicode="&#x1af;" horiz-adv-x="829" 
d="M813 744q0 -96 -47.5 -150t-111.5 -75v-270q0 -120 -71 -184q-82 -74 -218 -74t-218 74q-71 64 -71 184v480h150v-480q0 -130 139 -130t139 130v480h150v-141q89 50 89 140h-65v125h135v-109z" />
    <glyph glyph-name="uhorn" unicode="&#x1b0;" horiz-adv-x="720" 
d="M703 556q0 -51 -15.5 -92.5t-41 -67.5t-51 -41.5t-54.5 -24.5v-330h-140v78q-58 -87 -162 -87q-86 0 -133.5 49t-47.5 138v362h140v-333q0 -97 90 -97q51 0 82 29t31 77v324h140v-142q38 20 65 57t27 85h-65v125h135v-109z" />
    <glyph glyph-name="eturned" unicode="&#x1dd;" 
d="M525 277q0 -135 -66.5 -210.5t-183.5 -75.5q-119 0 -186 79.5t-67 219.5l1 17h362q-3 75 -31 105t-81 30q-90 0 -107 -54h-138q23 78 90 119.5t160 41.5q116 0 181.5 -71.5t65.5 -200.5zM383 214h-215q5 -57 34 -86.5t75 -29.5q92 0 106 116z" />
    <glyph glyph-name="Gcaron" unicode="&#x1e6;" horiz-adv-x="778" 
d="M711 0h-90l-18 100q-42 -58 -94.5 -85t-125.5 -27q-148 0 -244.5 106t-96.5 271q0 170 97.5 273t255.5 103q132 0 217 -66t99 -179h-141q-40 117 -174 117q-96 0 -150 -64.5t-54 -181.5q0 -112 58.5 -181.5t149.5 -69.5q69 0 123.5 42.5t61.5 108.5h-166v125h292v-392z
M587 922l-130 -135h-128l-124 135h94l98 -70l99 70h91z" />
    <glyph glyph-name="gcaron" unicode="&#x1e7;" horiz-adv-x="611" 
d="M541 -18q0 -95 -67.5 -147.5t-189.5 -52.5q-109 0 -173 43t-66 110h145q17 -63 99 -63q53 0 86 30.5t33 79.5v80q-40 -40 -73 -55.5t-80 -15.5q-100 0 -160.5 74t-60.5 199t63.5 205t160.5 80q90 0 150 -92v83h133v-558zM410 266q0 74 -34.5 120t-87.5 46
q-51 0 -82.5 -45t-31.5 -121q0 -73 31 -115.5t81 -42.5q55 0 89.5 42.5t34.5 115.5zM475 752l-108 -154h-127l-103 154h88l82 -77l82 77h86z" />
    <glyph glyph-name="Oogonek" unicode="&#x1ea;" horiz-adv-x="778" 
d="M742 360q0 -120 -55 -211.5t-152 -132.5q-102 -44 -102 -108q0 -48 52 -48h63v-90h-63q-66 0 -106.5 25.5t-40.5 77.5q0 31 13.5 57t46.5 58h-7q-159 0 -255 105.5t-96 271.5q0 161 96.5 268.5t253.5 107.5q158 0 255 -107t97 -274zM592 361q0 114 -54.5 183t-146.5 69
q-90 0 -145.5 -68.5t-55.5 -179.5q0 -114 55 -181.5t146 -67.5q90 0 145.5 67t55.5 178z" />
    <glyph glyph-name="oogonek" unicode="&#x1eb;" horiz-adv-x="611" 
d="M569 266q0 -169 -119 -239q-94 -55 -94 -119q0 -48 52 -48h63v-90h-63q-66 0 -106.5 25.5t-40.5 77.5q0 32 14 59t50 60q-8 -1 -23 -1q-125 0 -196 73t-71 206q0 132 71 205.5t195 73.5q128 0 198 -73.5t70 -209.5zM429 268q0 79 -34.5 123.5t-92.5 44.5t-92.5 -44.5
t-34.5 -121.5t34.5 -121.5t92.5 -44.5q57 0 92 44.5t35 119.5z" />
    <glyph glyph-name="Gacute" unicode="&#x1f4;" horiz-adv-x="778" 
d="M711 0h-90l-18 100q-42 -58 -94.5 -85t-125.5 -27q-148 0 -244.5 106t-96.5 271q0 170 97.5 273t255.5 103q132 0 217 -66t99 -179h-141q-40 117 -174 117q-96 0 -150 -64.5t-54 -181.5q0 -112 58.5 -181.5t149.5 -69.5q69 0 123.5 42.5t61.5 108.5h-166v125h292v-392z
M583 921l-135 -135h-106l76 135h165z" />
    <glyph glyph-name="gacute" unicode="&#x1f5;" horiz-adv-x="611" 
d="M541 -18q0 -95 -67.5 -147.5t-189.5 -52.5q-109 0 -173 43t-66 110h145q17 -63 99 -63q53 0 86 30.5t33 79.5v80q-40 -40 -73 -55.5t-80 -15.5q-100 0 -160.5 74t-60.5 199t63.5 205t160.5 80q90 0 150 -92v83h133v-558zM410 266q0 74 -34.5 120t-87.5 46
q-51 0 -82.5 -45t-31.5 -121q0 -73 31 -115.5t81 -42.5q55 0 89.5 42.5t34.5 115.5zM482 752l-126 -154h-100l70 154h156z" />
    <glyph glyph-name="Aringacute" unicode="&#x1fa;" horiz-adv-x="722" 
d="M703 0h-154l-48 147h-273l-49 -147h-153l259 729h166zM460 272l-95 285l-95 -285h190zM556 1117l-135 -135h-106l76 135h165zM468 862q0 -40 -29.5 -69t-69.5 -29q-42 0 -71 29t-29 70t29 70t72 29q41 0 69.5 -29t28.5 -71zM415 863q0 19 -13 32.5t-32 13.5
q-20 0 -34 -13.5t-14 -32.5t14 -32.5t34 -13.5q18 0 31.5 13.5t13.5 32.5z" />
    <glyph glyph-name="aringacute" unicode="&#x1fb;" 
d="M524 0h-152q-16 20 -16 68q-74 -77 -164 -77q-71 0 -117.5 40t-46.5 115q0 72 38.5 110t120.5 53l56 10q12 2 32 5t28.5 4.5t21 5.5t17.5 9.5t9 15t4 23.5q0 54 -81 54q-52 0 -73 -16t-26 -58h-135q13 187 231 187q221 0 221 -166v-300q0 -37 32 -66v-17zM355 231v24
q-19 -9 -59 -17l-48 -9q-45 -8 -62.5 -22.5t-17.5 -44.5q0 -58 76 -58q53 0 82 33t29 94zM459 928l-135 -135h-106l76 135h165zM371 673q0 -40 -29.5 -69t-69.5 -29q-42 0 -71 29t-29 70t29 70t72 29q41 0 69.5 -29t28.5 -71zM318 674q0 19 -13 32.5t-32 13.5
q-20 0 -34 -13.5t-14 -32.5t14 -32.5t34 -13.5q18 0 31.5 13.5t13.5 32.5z" />
    <glyph glyph-name="AEacute" unicode="&#x1fc;" horiz-adv-x="1000" 
d="M966 0h-536v152h-223l-53 -152h-153l263 729h682v-125h-366v-165h339v-125h-339v-189h386v-125zM430 277v327h-67l-114 -327h181zM693 921l-135 -135h-106l76 135h165z" />
    <glyph glyph-name="aeacute" unicode="&#x1fd;" horiz-adv-x="889" 
d="M857 250q0 -12 -1 -24h-362q0 -62 31 -94.5t83 -32.5q34 0 64 16.5t40 36.5h138q-24 -70 -92.5 -115t-157.5 -45q-136 0 -200 104q-89 -105 -205 -105q-78 0 -123 41.5t-45 116.5q0 73 38 110.5t121 52.5l56 10q13 2 28.5 4.5t21 3.5t12.5 2.5t10.5 3l7 3t8.5 4.5
q24 13 24 40q0 53 -85 53q-47 0 -68.5 -16.5t-26.5 -57.5h-131q3 187 228 187q117 0 175 -50q62 50 155 50q121 0 188.5 -78.5t67.5 -220.5zM354 231v23q-24 -14 -59 -19l-48 -7q-42 -6 -61 -20.5t-19 -44.5q0 -59 76 -59q54 0 82.5 32.5t28.5 94.5zM711 319
q-11 123 -109 123t-107 -123h216zM621 752l-126 -154h-100l70 154h156z" />
    <glyph glyph-name="Oslashacute" unicode="&#x1fe;" horiz-adv-x="778" 
d="M742 360q0 -162 -97 -267t-254 -105q-129 0 -218 72l-64 -69l-68 64l68 73q-69 98 -69 237q0 161 96.5 268.5t253.5 107.5q128 0 218 -73l65 70l68 -64l-69 -74q70 -100 70 -240zM592 361q0 71 -23 128l-303 -328q51 -45 125 -45q90 0 145.5 67t55.5 178zM515 568
q-50 45 -124 45q-90 0 -145.5 -68.5t-55.5 -179.5q0 -70 22 -125zM577 921l-135 -135h-106l76 135h165z" />
    <glyph glyph-name="oslashacute" unicode="&#x1ff;" horiz-adv-x="611" 
d="M569 266q0 -129 -71.5 -202t-195.5 -73q-98 0 -164 46l-38 -40l-60 58l40 42q-45 70 -45 173q0 132 71 205.5t195 73.5q101 0 165 -45l38 39l60 -58l-40 -42q45 -67 45 -177zM429 268q0 36 -8 66l-194 -204q32 -26 75 -26q57 0 92 44.5t35 119.5zM377 410q-31 26 -75 26
q-58 0 -92.5 -44.5t-34.5 -121.5q0 -34 8 -64zM482 752l-126 -154h-100l70 154h156z" />
    <glyph glyph-name="Adblgrave" unicode="&#x200;" horiz-adv-x="722" 
d="M703 0h-154l-48 147h-273l-49 -147h-153l259 729h166zM460 272l-95 285l-95 -285h190zM509 787h-85l-111 154h126zM311 787h-85l-111 154h126z" />
    <glyph glyph-name="adblgrave" unicode="&#x201;" 
d="M524 0h-152q-16 20 -16 68q-74 -77 -164 -77q-71 0 -117.5 40t-46.5 115q0 72 38.5 110t120.5 53l56 10q12 2 32 5t28.5 4.5t21 5.5t17.5 9.5t9 15t4 23.5q0 54 -81 54q-52 0 -73 -16t-26 -58h-135q13 187 231 187q221 0 221 -166v-300q0 -37 32 -66v-17zM355 231v24
q-19 -9 -59 -17l-48 -9q-45 -8 -62.5 -22.5t-17.5 -44.5q0 -58 76 -58q53 0 82 33t29 94zM412 598h-85l-111 154h126zM214 598h-85l-111 154h126z" />
    <glyph glyph-name="Edblgrave" unicode="&#x204;" horiz-adv-x="667" 
d="M624 0h-545v729h527v-125h-377v-165h349v-125h-349v-189h395v-125zM484 787h-85l-111 154h126zM286 787h-85l-111 154h126z" />
    <glyph glyph-name="edblgrave" unicode="&#x205;" 
d="M525 250l-1 -17h-362q3 -75 31 -105t81 -30q90 0 107 54h138q-23 -78 -90 -119.5t-160 -41.5q-116 0 -181.5 71.5t-65.5 200.5q0 135 66.5 210.5t183.5 75.5q119 0 186 -79.5t67 -219.5zM379 326q-5 57 -34 86.5t-75 29.5q-92 0 -106 -116h215zM413 598h-85l-111 154h126
zM215 598h-85l-111 154h126z" />
    <glyph glyph-name="Idblgrave" unicode="&#x208;" horiz-adv-x="278" 
d="M213 0h-150v729h150v-729zM279 787h-85l-111 154h126zM81 787h-85l-111 154h126z" />
    <glyph glyph-name="idblgrave" unicode="&#x209;" horiz-adv-x="278" 
d="M207 0h-140v540h140v-540zM280 598h-85l-111 154h126zM82 598h-85l-111 154h126z" />
    <glyph glyph-name="Odblgrave" unicode="&#x20c;" horiz-adv-x="778" 
d="M742 360q0 -162 -97 -267t-254 -105q-159 0 -255 105.5t-96 271.5q0 161 96.5 268.5t253.5 107.5q158 0 255 -107t97 -274zM592 361q0 114 -54.5 183t-146.5 69q-90 0 -145.5 -68.5t-55.5 -179.5q0 -114 55 -181.5t146 -67.5q90 0 145.5 67t55.5 178zM531 787h-85
l-111 154h126zM333 787h-85l-111 154h126z" />
    <glyph glyph-name="odblgrave" unicode="&#x20d;" horiz-adv-x="611" 
d="M569 266q0 -129 -71.5 -202t-195.5 -73q-125 0 -196 73t-71 206q0 132 71 205.5t195 73.5q128 0 198 -73.5t70 -209.5zM429 268q0 79 -34.5 123.5t-92.5 44.5t-92.5 -44.5t-34.5 -121.5t34.5 -121.5t92.5 -44.5q57 0 92 44.5t35 119.5zM446 598h-85l-111 154h126z
M248 598h-85l-111 154h126z" />
    <glyph glyph-name="Rdblgrave" unicode="&#x210;" horiz-adv-x="722" 
d="M677 0h-161q-14 26 -18.5 50t-4.5 75l2 77q0 46 -22 66.5t-71 20.5h-172v-289h-150v729h391q94 0 145 -54.5t51 -142.5q0 -132 -123 -180q27 -11 40 -17.5t26.5 -21.5t18 -27t9 -44t5.5 -63t2 -92q0 -42 32 -60v-27zM517 511q0 49 -23 71t-83 22h-181v-190h181
q61 0 83.5 23t22.5 74zM502 787h-85l-111 154h126zM304 787h-85l-111 154h126z" />
    <glyph glyph-name="rdblgrave" unicode="&#x211;" horiz-adv-x="389" 
d="M370 406q-25 4 -44 4q-123 0 -123 -123v-287h-140v540h140v-106q22 55 62 85t88 30q9 0 17 -1v-142zM344 598h-85l-111 154h126zM146 598h-85l-111 154h126z" />
    <glyph glyph-name="Udblgrave" unicode="&#x214;" horiz-adv-x="722" 
d="M654 246q0 -125 -79.5 -191.5t-209.5 -66.5t-209.5 66.5t-79.5 191.5v483h150v-483q0 -130 139 -130t139 130v483h150v-483zM502 787h-85l-111 154h126zM304 787h-85l-111 154h126z" />
    <glyph glyph-name="udblgrave" unicode="&#x215;" horiz-adv-x="611" 
d="M541 0h-140v71q-60 -80 -162 -80q-86 0 -133.5 49t-47.5 138v362h140v-333q0 -97 90 -97q51 0 82 29t31 77v324h140v-540zM446 598h-85l-111 154h126zM248 598h-85l-111 154h126z" />
    <glyph glyph-name="uni0218" unicode="&#x218;" horiz-adv-x="667" 
d="M633 219q0 -110 -78.5 -170.5t-220.5 -60.5q-141 0 -221.5 62.5t-80.5 178.5h146q0 -58 43.5 -89.5t120.5 -31.5q69 0 108 24t39 69q0 43 -30 64t-107 36l-102 20q-111 22 -158 66.5t-47 129.5q0 107 72.5 165.5t203.5 58.5q135 0 210.5 -60t75.5 -174h-140
q0 55 -40.5 84.5t-112.5 29.5q-58 0 -92 -24.5t-34 -65.5q0 -40 29 -59.5t109 -35.5l114 -22q102 -20 147.5 -65t45.5 -130zM383 -163q0 -61 -34.5 -101.5t-87.5 -42.5v46q69 13 67 89h-67v112h122v-103z" />
    <glyph glyph-name="uni0219" unicode="&#x219;" 
d="M520 160q0 -82 -61 -125.5t-175 -43.5q-249 0 -255 180h137q9 -41 34 -55.5t76 -14.5q104 0 104 46q0 22 -47 37l-167 52q-71 22 -94.5 51t-23.5 82q0 83 59.5 131.5t162.5 48.5q109 0 171 -48.5t64 -134.5h-135q-1 73 -101 73q-37 0 -59 -13.5t-22 -36.5q0 -17 10 -25.5
t39 -16.5l177 -51q106 -31 106 -129v-7zM333 -163q0 -61 -34.5 -101.5t-87.5 -42.5v46q69 13 67 89h-67v112h122v-103z" />
    <glyph glyph-name="uni021A" unicode="&#x21a;" horiz-adv-x="611" 
d="M598 604h-213v-604h-150v604h-221v125h584v-125zM361 -163q0 -61 -34.5 -101.5t-87.5 -42.5v46q69 13 67 89h-67v112h122v-103z" />
    <glyph glyph-name="uni021B" unicode="&#x21b;" horiz-adv-x="333" 
d="M301 0q-6 0 -34.5 -2t-46.5 -2q-70 0 -103.5 28.5t-33.5 91.5v320h-69v93h69v145h140v-145h78v-93h-78v-282q0 -36 9 -47.5t37 -11.5q11 0 32 3v-98zM222 -163q0 -61 -34.5 -101.5t-87.5 -42.5v46q69 13 67 89h-67v112h122v-103z" />
    <glyph glyph-name="ereversed" unicode="&#x258;" 
d="M525 263q0 -129 -65.5 -200.5t-181.5 -71.5q-93 0 -160 41.5t-90 119.5h138q17 -54 107 -54q53 0 81 30t31 105h-362l-1 17q0 140 67 219.5t186 79.5q117 0 183.5 -75.5t66.5 -210.5zM383 326q-14 116 -106 116q-46 0 -75 -29.5t-34 -86.5h215z" />
    <glyph glyph-name="schwa" unicode="&#x259;" 
d="M525 277q0 -135 -66.5 -210.5t-183.5 -75.5q-119 0 -186 79.5t-67 219.5l1 17h362q-3 75 -31 105t-81 30q-90 0 -107 -54h-138q23 78 90 119.5t160 41.5q116 0 181.5 -71.5t65.5 -200.5zM383 214h-215q5 -57 34 -86.5t75 -29.5q92 0 106 116z" />
    <glyph glyph-name="ringhalfright" unicode="&#x2be;" horiz-adv-x="461" 
d="M401 516q0 -95 -46.5 -146t-131.5 -51q-71 0 -114.5 39t-48.5 109q-2 9 8 9h89q6 0 8 -7q7 -32 20.5 -45.5t38.5 -13.5q68 0 68 106q0 48 -18 74t-50 26q-44 0 -59 -50q-2 -6 -8 -6h-89q-10 0 -8 9q7 62 51.5 100t112.5 38q85 0 131 -49.5t46 -141.5z" />
    <glyph glyph-name="ringhalfleft" unicode="&#x2bf;" horiz-adv-x="461" 
d="M401 457q-7 -62 -51.5 -100t-112.5 -38q-85 0 -131 49.5t-46 141.5q0 95 46.5 146t131.5 51q71 0 114.5 -39t48.5 -109q2 -9 -8 -9h-89q-6 0 -8 7q-7 32 -20.5 45.5t-38.5 13.5q-68 0 -68 -106q0 -48 18 -74t50 -26q44 0 59 50q2 6 8 6h89q10 0 8 -9z" />
    <glyph glyph-name="circumflex" unicode="&#x2c6;" horiz-adv-x="333" 
d="M336 598h-88l-82 77l-82 -77h-86l108 154h127z" />
    <glyph glyph-name="caron" unicode="&#x2c7;" horiz-adv-x="333" 
d="M336 752l-108 -154h-127l-103 154h88l82 -77l82 77h86z" />
    <glyph glyph-name="breve" unicode="&#x2d8;" horiz-adv-x="333" 
d="M328 751q0 -62 -50 -106.5t-114 -44.5t-114 44.5t-50 106.5h80q0 -31 24 -47.5t60 -16.5t60 16.5t24 47.5h80z" />
    <glyph glyph-name="dotaccent" unicode="&#x2d9;" horiz-adv-x="333" 
d="M237 605h-140v140h140v-140z" />
    <glyph glyph-name="ring" unicode="&#x2da;" horiz-adv-x="333" 
d="M266 674q0 -40 -29.5 -69t-69.5 -29q-42 0 -71 29t-29 70t29 70t72 29q41 0 69.5 -29t28.5 -71zM213 675q0 19 -13 32.5t-32 13.5q-20 0 -34 -13.5t-14 -32.5t14 -32.5t34 -13.5q18 0 31.5 13.5t13.5 32.5z" />
    <glyph glyph-name="ogonek" unicode="&#x2db;" horiz-adv-x="333" 
d="M285 -230h-63q-66 0 -106.5 25.5t-40.5 77.5q0 34 16 62.5t57 64.5h105q-45 -25 -64 -44t-19 -48q0 -48 52 -48h63v-90z" />
    <glyph glyph-name="tilde" unicode="&#x2dc;" horiz-adv-x="333" 
d="M345 739q-6 -127 -95 -127q-24 0 -55 12l-71 26q-18 6 -30 6q-18 0 -27 -10.5t-13 -34.5h-63q3 58 28 91t66 33q20 0 56 -13l71 -25q14 -6 34 -6q32 0 36 48h63z" />
    <glyph glyph-name="hungarumlaut" unicode="&#x2dd;" horiz-adv-x="333" 
d="M222 752l-111 -154h-85l70 154h126zM420 752l-111 -154h-85l70 154h126z" />
    <glyph glyph-name="uni0300" unicode="&#x300;" horiz-adv-x="0" 
d="M-228 598h-100l-126 154h156z" />
    <glyph glyph-name="uni0301" unicode="&#x301;" horiz-adv-x="0" 
d="M-101 752l-126 -154h-100l70 154h156z" />
    <glyph glyph-name="uni0302" unicode="&#x302;" horiz-adv-x="0" 
d="M-108 598h-88l-82 77l-82 -77h-86l108 154h127z" />
    <glyph glyph-name="uni0303" unicode="&#x303;" horiz-adv-x="0" 
d="M-99 739q-6 -127 -95 -127q-24 0 -55 12l-71 26q-18 6 -30 6q-18 0 -27 -10.5t-13 -34.5h-63q3 58 28 91t66 33q20 0 56 -13l71 -25q14 -6 34 -6q32 0 36 48h63z" />
    <glyph glyph-name="uni0304" unicode="&#x304;" horiz-adv-x="0" 
d="M-129 636h-299v79h299v-79z" />
    <glyph glyph-name="uni0306" unicode="&#x306;" horiz-adv-x="0" 
d="M-116 751q0 -62 -50 -106.5t-114 -44.5t-114 44.5t-50 106.5h80q0 -31 24 -47.5t60 -16.5t60 16.5t24 47.5h80z" />
    <glyph glyph-name="uni0307" unicode="&#x307;" horiz-adv-x="0" 
d="M-207 605h-140v140h140v-140z" />
    <glyph glyph-name="uni0308" unicode="&#x308;" horiz-adv-x="0" 
d="M-312 618h-126v115h126v-115zM-117 618h-126v115h126v-115z" />
    <glyph glyph-name="uni0309" unicode="&#x309;" horiz-adv-x="0" 
d="M-165 710q0 -23 -11.5 -38.5t-43.5 -34.5q-19 -11 -24 -18t-5 -25h-62q0 27 10 44t37 35q18 13 23.5 19t5.5 16q0 16 -12 26t-31 10q-45 0 -45 -51h-67q0 104 111 104q50 0 82 -24.5t32 -62.5z" />
    <glyph glyph-name="uni030A" unicode="&#x30a;" horiz-adv-x="0" 
d="M-178 674q0 -40 -29.5 -69t-69.5 -29q-42 0 -71 29t-29 70t29 70t72 29q41 0 69.5 -29t28.5 -71zM-231 675q0 19 -13 32.5t-32 13.5q-20 0 -34 -13.5t-14 -32.5t14 -32.5t34 -13.5q18 0 31.5 13.5t13.5 32.5z" />
    <glyph glyph-name="uni030B" unicode="&#x30b;" horiz-adv-x="0" 
d="M-222 752l-111 -154h-85l70 154h126zM-24 752l-111 -154h-85l70 154h126z" />
    <glyph glyph-name="uni030C" unicode="&#x30c;" horiz-adv-x="0" 
d="M-108 752l-108 -154h-127l-103 154h88l82 -77l82 77h86z" />
    <glyph glyph-name="uni030F" unicode="&#x30f;" horiz-adv-x="0" 
d="M-137 598h-85l-111 154h126zM-335 598h-85l-111 154h126z" />
    <glyph glyph-name="uni0311" unicode="&#x311;" horiz-adv-x="0" 
d="M-116 600h-80q0 31 -24 47.5t-60 16.5t-60 -16.5t-24 -47.5h-80q0 62 50 106.5t114 44.5t114 -44.5t50 -106.5z" />
    <glyph glyph-name="uni0323" unicode="&#x323;" horiz-adv-x="0" 
d="M-207 -205h-140v140h140v-140z" />
    <glyph glyph-name="uni0326" unicode="&#x326;" horiz-adv-x="0" 
d="M-216 -163q0 -61 -34.5 -101.5t-87.5 -42.5v46q69 13 67 89h-67v112h122v-103z" />
    <glyph glyph-name="uni032E" unicode="&#x32e;" horiz-adv-x="0" 
d="M-97 -74q-12 -122 -182 -122q-81 0 -129.5 30t-49.5 92h71q8 -40 110 -40q103 0 109 40h71z" />
    <glyph glyph-name="uni032F" unicode="&#x32f;" horiz-adv-x="0" 
d="M-97 -196h-71q-8 40 -110 40q-103 0 -109 -40h-71q12 122 182 122q81 0 129.5 -30t49.5 -92z" />
    <glyph glyph-name="uni0330" unicode="&#x330;" horiz-adv-x="0" 
d="M-99 -71q-6 -127 -95 -127q-24 0 -55 12l-71 26q-18 6 -30 6q-18 0 -27 -10.5t-13 -34.5h-63q3 58 28 91t66 33q20 0 56 -13l71 -25q14 -6 34 -6q32 0 36 48h63z" />
    <glyph glyph-name="uni0331" unicode="&#x331;" horiz-adv-x="0" 
d="M-129 -174h-299v79h299v-79z" />
    <glyph glyph-name="uni0332" unicode="&#x332;" horiz-adv-x="0" 
d="M-129 -174h-299v79h299v-79z" />
    <glyph glyph-name="Alpha" unicode="&#x391;" horiz-adv-x="722" 
d="M703 0h-154l-48 147h-273l-49 -147h-153l259 729h166zM460 272l-95 285l-95 -285h190z" />
    <glyph glyph-name="Beta" unicode="&#x392;" horiz-adv-x="722" 
d="M666 210q0 -94 -66.5 -152t-189.5 -58h-328v729h325q110 0 174 -55.5t64 -136.5q0 -47 -23 -81t-77 -69q121 -71 121 -177zM501 521q0 83 -106 83h-163v-165h163q106 0 106 82zM522 219q0 95 -111 95h-179v-189h179q111 0 111 94z" />
    <glyph glyph-name="Gamma" unicode="&#x393;" horiz-adv-x="611" 
d="M586 604h-362v-604h-150v729h512v-125z" />
    <glyph glyph-name="Delta" unicode="&#x394;" horiz-adv-x="729" 
d="M736 0h-743l307 707h129zM522 140l-157 363l-158 -363h315z" />
    <glyph glyph-name="Epsilon" unicode="&#x395;" horiz-adv-x="667" 
d="M624 0h-545v729h527v-125h-377v-165h349v-125h-349v-189h395v-125z" />
    <glyph glyph-name="Zeta" unicode="&#x396;" horiz-adv-x="611" 
d="M578 0h-548v125l373 479h-373v125h548v-125l-372 -479h372v-125z" />
    <glyph glyph-name="Eta" unicode="&#x397;" horiz-adv-x="722" 
d="M657 0h-150v331h-289v-331h-150v729h150v-273h289v273h150v-729z" />
    <glyph glyph-name="Theta" unicode="&#x398;" horiz-adv-x="778" 
d="M742 360q0 -162 -97 -267t-254 -105q-159 0 -255 105.5t-96 271.5q0 161 96.5 268.5t253.5 107.5q158 0 255 -107t97 -274zM592 361q0 114 -54.5 183t-146.5 69q-90 0 -145.5 -68.5t-55.5 -179.5q0 -114 55 -181.5t146 -67.5q90 0 145.5 67t55.5 178zM521 295h-260v140
h260v-140z" />
    <glyph glyph-name="Iota" unicode="&#x399;" horiz-adv-x="278" 
d="M213 0h-150v729h150v-729z" />
    <glyph glyph-name="Kappa" unicode="&#x39a;" horiz-adv-x="722" 
d="M717 0h-179l-239 322l-75 -78v-244h-150v729h150v-320l285 320h177l-291 -314z" />
    <glyph glyph-name="Lambda" unicode="&#x39b;" horiz-adv-x="722" 
d="M703 0h-154l-184 557l-186 -557h-153l259 729h166z" />
    <glyph glyph-name="Mu" unicode="&#x39c;" horiz-adv-x="833" 
d="M776 0h-150v568l-129 -568h-150l-131 568v-568h-150v729h224l132 -580l128 580h226v-729z" />
    <glyph glyph-name="Nu" unicode="&#x39d;" horiz-adv-x="722" 
d="M661 0h-150l-293 504v-504h-150v729h154l289 -496v496h150v-729z" />
    <glyph glyph-name="Xi" unicode="&#x39e;" horiz-adv-x="722" 
d="M647 579h-572v150h572v-150zM497 295h-272v140h272v-140zM647 0h-572v150h572v-150z" />
    <glyph glyph-name="Omicron" unicode="&#x39f;" horiz-adv-x="778" 
d="M742 360q0 -162 -97 -267t-254 -105q-159 0 -255 105.5t-96 271.5q0 161 96.5 268.5t253.5 107.5q158 0 255 -107t97 -274zM592 361q0 114 -54.5 183t-146.5 69q-90 0 -145.5 -68.5t-55.5 -179.5q0 -114 55 -181.5t146 -67.5q90 0 145.5 67t55.5 178z" />
    <glyph glyph-name="Pi" unicode="&#x3a0;" horiz-adv-x="659" 
d="M624 0h-150v604h-289v-604h-150v729h589v-729z" />
    <glyph glyph-name="Rho" unicode="&#x3a1;" horiz-adv-x="667" 
d="M633 503q0 -111 -60 -177t-160 -66h-187v-260h-150v729h322q114 0 174.5 -58t60.5 -168zM483 494q0 56 -28.5 83t-88.5 27h-140v-219h140q117 0 117 109z" />
    <glyph glyph-name="Sigma" unicode="&#x3a3;" horiz-adv-x="612" 
d="M577 0h-542v135l229 230l-229 229v135h542v-125h-375l239 -239l-239 -240h375v-125z" />
    <glyph glyph-name="Tau" unicode="&#x3a4;" horiz-adv-x="611" 
d="M598 604h-213v-604h-150v604h-221v125h584v-125z" />
    <glyph glyph-name="Upsilon" unicode="&#x3a5;" horiz-adv-x="667" 
d="M650 729l-231 -459v-270h-150v270l-242 459h167l149 -322l139 322h168z" />
    <glyph glyph-name="Phi" unicode="&#x3a6;" horiz-adv-x="761" 
d="M702 365q0 -91 -70 -153.5t-176 -79.5v-132h-150v132q-106 17 -176 79.5t-70 153.5t70 153t176 79v132h150v-132q106 -17 176 -79t70 -153zM306 479q-48 -13 -77 -42.5t-29 -71.5t29 -72t77 -43v229zM562 365q0 42 -29 71.5t-77 42.5v-229q48 13 77 43t29 72z" />
    <glyph glyph-name="Chi" unicode="&#x3a7;" horiz-adv-x="667" 
d="M653 0h-178l-140 253l-139 -253h-174l230 367l-222 362h178l128 -240l134 240h174l-225 -357z" />
    <glyph glyph-name="Psi" unicode="&#x3a8;" horiz-adv-x="744" 
d="M684 540q0 -114 -66.5 -202.5t-170.5 -115.5v-222h-150v222q-104 27 -170.5 115.5t-66.5 202.5v189h140v-189q0 -61 26 -114t71 -79v382h150v-382q45 26 71 79t26 114v189h140v-189z" />
    <glyph glyph-name="Omega" unicode="&#x3a9;" horiz-adv-x="770" 
d="M735 0h-292v247q49 21 78 70t29 109q0 77 -47.5 133.5t-117.5 56.5t-117.5 -56.5t-47.5 -133.5q0 -60 29 -109t78 -70v-247h-292v125h142v64q-107 94 -107 237q0 130 92.5 222.5t222.5 92.5t222.5 -92.5t92.5 -222.5q0 -143 -107 -237v-64h142v-125z" />
    <glyph glyph-name="alpha" unicode="&#x3b1;" horiz-adv-x="776" 
d="M716 36l-111 -72q-26 39 -58 131q-86 -91 -199 -91q-116 0 -202 66.5t-86 169.5q0 122 84 209t204 87q117 0 200 -115q20 98 57 155l111 -72q-30 -47 -54.5 -149t-29.5 -117q40 -134 84 -202zM501 241q-12 39 -24 66.5t-30 56t-43 43.5t-56 15q-65 0 -106.5 -54
t-41.5 -128q0 -53 44 -87.5t104 -34.5q50 0 90 34.5t63 88.5z" />
    <glyph glyph-name="beta" unicode="&#x3b2;" horiz-adv-x="681" 
d="M610 236q0 -113 -59.5 -179t-158.5 -66q-79 0 -150 40v-261h-140v748q0 113 61 161q63 50 175 50q101 0 165 -51t64 -131q0 -102 -87 -136q46 -9 79 -40q51 -50 51 -135zM470 226q0 57 -36.5 90t-100.5 33h-13v95h9q45 1 71.5 25t26.5 64q0 39 -26 61t-72 22
q-41 0 -64 -21t-23 -58v-366q38 -60 111 -60q52 0 84.5 31t32.5 84z" />
    <glyph glyph-name="gamma" unicode="&#x3b3;" horiz-adv-x="683" 
d="M622 540l-211 -549v-221h-140v221l-211 549h146l135 -349l135 349h146z" />
    <glyph glyph-name="delta" unicode="&#x3b4;" horiz-adv-x="608" 
d="M573 226q0 -102 -79 -168.5t-190 -66.5t-190 66.5t-79 168.5q0 120 146 182q-71 69 -71 162q0 72 66 115.5t155 43.5q112 0 196 -75l-75 -84q-52 46 -121 46q-34 0 -57.5 -11t-23.5 -35q0 -15 4.5 -28t15 -24t20 -18.5t27.5 -16t28.5 -13.5t32 -13t30.5 -12
q74 -31 119.5 -88.5t45.5 -130.5zM423 226q0 65 -69 89q-169 0 -169 -89q0 -43 35 -69t84 -26t84 26t35 69z" />
    <glyph glyph-name="epsilon" unicode="&#x3b5;" horiz-adv-x="562" 
d="M502 7q-146 -38 -209 -38q-95 0 -164 57.5t-69 143.5q0 76 74 119q-65 37 -65 107q0 75 61.5 125t144.5 50q75 0 219 -40l-25 -90q-57 16 -194 16q-27 0 -46.5 -17.5t-19.5 -43.5q0 -21 14 -34t43.5 -18t51 -6t60.5 -1v-91q-39 0 -64 -2t-54.5 -9t-44.5 -23t-15 -42
q0 -36 27.5 -61.5t65.5 -25.5q135 0 186 13z" />
    <glyph glyph-name="zeta" unicode="&#x3b6;" horiz-adv-x="581" 
d="M551 -45q0 -71 -56 -118.5t-133 -47.5v102q22 0 35.5 19t13.5 45q0 24 -14 41t-35 17h-39q-108 0 -185.5 75t-77.5 182q0 109 52 202t143 155h-195v92h491v-92h-95q-114 -27 -185 -128.5t-71 -228.5q0 -58 35 -100.5t88 -42.5h39q77 0 133 -50t56 -122z" />
    <glyph glyph-name="eta" unicode="&#x3b7;" horiz-adv-x="611" 
d="M551 -230h-140v590q0 29 -26 45.5t-62 16.5q-80 0 -123 -65v-357h-140v540h140v-38q58 34 123 34q92 0 160 -49t68 -127v-590z" />
    <glyph glyph-name="theta" unicode="&#x3b8;" horiz-adv-x="565" 
d="M505 334q0 -86 -24 -159.5t-76 -122t-123 -48.5q-104 0 -163 98t-59 232q0 76 12 142.5t37 124t69.5 91t103.5 33.5q60 0 104.5 -33.5t69.5 -91t37 -124t12 -142.5zM365 391q-1 48 -4 82t-11.5 68t-25.5 52t-42 18q-47 0 -63.5 -59t-18.5 -161h165zM364 277h-163
q1 -47 6.5 -78.5t24 -56t50.5 -24.5q46 0 63 43t19 116z" />
    <glyph glyph-name="iota" unicode="&#x3b9;" horiz-adv-x="437" 
d="M377 4q-67 0 -123.5 15.5t-95 52.5t-38.5 90v378h140v-378q0 -16 9.5 -25.5t30 -13t35 -4.5t42.5 -1v-114z" />
    <glyph glyph-name="kappa" unicode="&#x3ba;" 
d="M548 0h-164l-129 238l-56 -61v-177h-140v540h140v-210l177 210h159l-184 -204z" />
    <glyph glyph-name="lambda" unicode="&#x3bb;" horiz-adv-x="757" 
d="M698 0h-148l-138 335l-196 -335h-156l288 490l-13 32q-16 39 -50.5 62.5t-76.5 23.5v102q87 0 158.5 -39.5t101.5 -112.5z" />
    <glyph glyph-name="mu.greek" unicode="&#x3bc;" horiz-adv-x="731" 
d="M611 0h-140v32q-48 -28 -105 -28q-58 0 -106 28v-262h-140v770h140v-342q15 -36 42.5 -58t63.5 -22q35 0 62.5 22t42.5 58v342h140v-540z" />
    <glyph glyph-name="nu" unicode="&#x3bd;" horiz-adv-x="619" 
d="M589 360q0 -128 -71.5 -234.5t-190.5 -155.5l-92 40l-205 530h146l160 -405q53 40 83 99t30 126q0 90 -9 180h140q9 -90 9 -180z" />
    <glyph glyph-name="xi" unicode="&#x3be;" horiz-adv-x="611" 
d="M551 -45q0 -71 -56 -118.5t-133 -47.5v102q22 0 35.5 19t13.5 45q0 24 -14 41t-35 17h-39q-107 0 -185 64t-78 161q0 102 96 163q-87 50 -87 138q0 51 32 88h-41v92h491v-92h-237q-105 -18 -105 -88q0 -44 44.5 -63.5t108.5 -19.5v-102q-65 0 -113.5 -31.5t-48.5 -84.5
q0 -47 36.5 -79t86.5 -32h39q77 0 133 -50t56 -122z" />
    <glyph glyph-name="omicron" unicode="&#x3bf;" horiz-adv-x="611" 
d="M569 266q0 -129 -71.5 -202t-195.5 -73q-125 0 -196 73t-71 206q0 132 71 205.5t195 73.5q128 0 198 -73.5t70 -209.5zM429 268q0 79 -34.5 123.5t-92.5 44.5t-92.5 -44.5t-34.5 -121.5t34.5 -121.5t92.5 -44.5q57 0 92 44.5t35 119.5z" />
    <glyph glyph-name="pi" unicode="&#x3c0;" horiz-adv-x="742" 
d="M707 427h-100v-427h-140v427h-112v-427h-140v427q-40 0 -53.5 -26t-13.5 -81h-113q0 125 57 172.5t193 47.5h422v-113z" />
    <glyph glyph-name="rho" unicode="&#x3c1;" horiz-adv-x="670" 
d="M610 270q0 -111 -81 -188.5t-194 -77.5q-71 0 -135 33v-267h-140v500q0 111 81 188.5t194 77.5t194 -77.5t81 -188.5zM470 270q0 62 -39 107t-96 45t-96 -45t-39 -107v-104q57 -48 135 -48q57 0 96 45t39 107z" />
    <glyph glyph-name="uni03C2" unicode="&#x3c2;" horiz-adv-x="611" 
d="M551 -45q0 -71 -56 -118.5t-133 -47.5v102q22 0 35.5 19t13.5 45q0 24 -14 41t-35 17h-39q-109 0 -186 76.5t-77 185.5q0 108 77 184.5t186 76.5q76 0 137 -44t81 -116l-120 -34q-10 35 -36.5 57.5t-61.5 22.5q-53 0 -88 -43.5t-35 -103.5t35 -104t88 -44h39
q77 0 133 -50t56 -122z" />
    <glyph glyph-name="sigma" unicode="&#x3c3;" horiz-adv-x="700" 
d="M670 495q-54 -25 -127 -42q51 -71 51 -187q0 -129 -71.5 -202t-195.5 -73q-125 0 -196 73t-71 206q0 132 71 205.5t195 73.5q53 0 100 -14q88 18 194 68zM454 268q0 79 -34.5 123.5t-92.5 44.5t-92.5 -44.5t-34.5 -121.5t34.5 -121.5t92.5 -44.5q57 0 92 44.5t35 119.5z
" />
    <glyph glyph-name="tau" unicode="&#x3c4;" horiz-adv-x="481" 
d="M421 4q-67 0 -123.5 15.5t-95 52.5t-38.5 90v251h-104v114h349v-114h-105v-251q0 -16 9.5 -25.5t30 -13t35 -4.5t42.5 -1v-114z" />
    <glyph glyph-name="upsilon" unicode="&#x3c5;" horiz-adv-x="611" 
d="M551 250q0 -102 -74.5 -174t-179.5 -72q-96 0 -166.5 48.5t-70.5 127.5v360h140v-360q0 -30 28.5 -46t68.5 -16q49 0 81.5 39t32.5 93q0 146 -18 290h140q18 -144 18 -290z" />
    <glyph glyph-name="phi" unicode="&#x3c6;" horiz-adv-x="898" 
d="M838 270q0 -74 -45.5 -131.5t-116 -89t-157.5 -41.5v-238h-140v238q-87 10 -157.5 41.5t-116 89t-45.5 131.5q0 91 61 162.5t155 96.5l27 -100q-48 -14 -75.5 -58.5t-27.5 -100.5q0 -62 50 -99t129 -48v127q0 116 64.5 201t165.5 85q98 0 163.5 -79t65.5 -187zM698 270
q0 63 -22 107.5t-67 44.5q-90 0 -90 -172v-127q79 11 129 48t50 99z" />
    <glyph glyph-name="chi" unicode="&#x3c7;" horiz-adv-x="689" 
d="M628 -230h-152l-132 243l-132 -243h-152l208 385l-208 385h152l132 -243l132 243h152l-208 -385z" />
    <glyph glyph-name="psi" unicode="&#x3c8;" horiz-adv-x="778" 
d="M718 180q0 -81 -72.5 -122.5t-186.5 -50.5v-237h-140v237q-114 9 -186.5 50.5t-72.5 122.5v360h140v-360q0 -55 119 -61v610h140v-610q119 6 119 61v360h140v-360z" />
    <glyph glyph-name="omega" unicode="&#x3c9;" horiz-adv-x="789" 
d="M729 301q0 -77 -22 -143.5t-69 -110t-111 -43.5q-85 0 -137 75q-48 -75 -128 -75q-64 0 -111 43.5t-69 110t-22 143.5q0 129 102 239h123q-85 -92 -85 -239q0 -43 1 -66t6.5 -55t19 -47t35.5 -15q63 0 77 90q-14 67 -14 152h140q0 -36 0.5 -56t2 -53.5t5.5 -52.5
t10.5 -40t17.5 -30.5t26 -9.5q22 0 35.5 15t19 47t6.5 55t1 66q0 147 -85 239h123q102 -110 102 -239z" />
    <glyph glyph-name="uni03D1" unicode="&#x3d1;" horiz-adv-x="671" 
d="M611 386l-60 1v-207q0 -84 -73 -136.5t-172 -52.5q-100 0 -173 52.5t-73 136.5v180h140v-180q0 -49 106 -49q105 0 105 49v210q-72 5 -126.5 15t-102.5 31t-73.5 57.5t-25.5 87.5q0 83 66 138.5t157 55.5q101 0 173 -68.5t72 -166.5v-62h60v-92zM411 540q0 58 -29 100.5
t-76 42.5q-46 0 -78.5 -29.5t-32.5 -72.5q0 -84 216 -99v58z" />
    <glyph glyph-name="uni03D5" unicode="&#x3d5;" horiz-adv-x="730" 
d="M670 270q0 -100 -67 -175t-168 -97v-228h-140v228q-101 22 -168 97t-67 175t67 175t168 97v187h140v-187q101 -22 168 -97t67 -175zM530 270q0 43 -26 76.5t-69 49.5v-252q43 16 69 49.5t26 76.5zM295 396q-43 -16 -69 -49.5t-26 -76.5t26 -76.5t69 -49.5v252z" />
    <glyph glyph-name="uni03D6" unicode="&#x3d6;" horiz-adv-x="789" 
d="M729 301q0 -77 -22 -143.5t-69 -110t-111 -43.5q-85 0 -137 75q-48 -75 -128 -75q-64 0 -111 43.5t-69 110t-22 143.5q0 129 102 239h123q-85 -92 -85 -239q0 -43 1 -66t6.5 -55t19 -47t35.5 -15q63 0 77 90q-14 67 -14 152h140q0 -36 0.5 -56t2 -53.5t5.5 -52.5
t10.5 -40t17.5 -30.5t26 -9.5q22 0 35.5 15t19 47t6.5 55t1 66q0 49 -2 87t-7 83t-16.5 77t-28.5 60t-44 42.5t-63 14.5q-122 0 -235 -67l-43 73q123 73 278 73q72 0 130.5 -37.5t95 -101t56 -141.5t19.5 -163z" />
    <glyph glyph-name="epsilon.alt" unicode="&#x3f5;" 
d="M510 135q-24 -66 -83 -105t-140 -39q-121 0 -187 71t-66 204q0 137 66.5 210t188.5 73q82 0 139.5 -37.5t80.5 -106.5h-148q-24 31 -73 31q-94 0 -111 -115h194v-102h-194q9 -56 37.5 -85.5t73.5 -29.5q49 0 74 31h148z" />
    <glyph glyph-name="uni0400" unicode="&#x400;" horiz-adv-x="709" 
d="M380 801h-70l-126 150h126zM627 0h-545v729h527v-125h-377v-165h349v-125h-349v-189h395v-125z" />
    <glyph glyph-name="afii10023" unicode="&#x401;" horiz-adv-x="709" 
d="M627 0h-545v729h527v-125h-377v-165h349v-125h-349v-189h395v-125zM310 800h-110v122h110v-122zM496 800h-110v122h110v-122z" />
    <glyph glyph-name="afii10051" unicode="&#x402;" horiz-adv-x="769" 
d="M720 50q0 -96 -69 -159t-179 -63h-37v125h25q46 0 78 27.5t32 75.5v220q0 48 -32 75.5t-78 27.5h-115v-379h-150v604h-181v125h504v-125h-173v-100h127q110 0 179 -63t69 -159v-232z" />
    <glyph glyph-name="afii10052" unicode="&#x403;" horiz-adv-x="611" 
d="M499 951l-126 -150h-70l70 150h126zM594 604h-362v-604h-150v729h512v-125z" />
    <glyph glyph-name="afii10053" unicode="&#x404;" horiz-adv-x="722" 
d="M685 249q-7 -125 -91 -198.5t-220 -73.5q-152 0 -241 102.5t-89 278.5q0 177 90 280t244 103q168 0 255 -115q42 -56 49 -144h-143q-12 52 -33 78q-42 53 -123 53q-73 0 -122 -46.5t-64 -130.5h291v-125h-292q9 -99 56.5 -153.5t125.5 -54.5q70 0 112 38t49 108h146z" />
    <glyph glyph-name="afii10054" unicode="&#x405;" horiz-adv-x="667" 
d="M633 213q0 -111 -79 -173.5t-220 -62.5q-140 0 -217.5 62t-84.5 179h146q4 -59 46 -90t118 -31q68 0 107.5 26t39.5 72q0 44 -31 68t-106 38l-102 20q-111 21 -158 66t-47 130q0 107 72.5 165.5t203.5 58.5q160 0 235 -83q51 -57 51 -151h-140q-8 114 -153 114
q-58 0 -92 -24.5t-34 -65.5q0 -40 29 -59.5t109 -35.5l114 -22q101 -20 147 -67.5t46 -133.5z" />
    <glyph glyph-name="afii10055" unicode="&#x406;" horiz-adv-x="278" 
d="M213 0h-150v729h150v-729z" />
    <glyph glyph-name="afii10056" unicode="&#x407;" horiz-adv-x="278" 
d="M101 800h-110v122h110v-122zM287 800h-110v122h110v-122zM213 0h-150v729h150v-729z" />
    <glyph glyph-name="afii10057" unicode="&#x408;" 
d="M486 190q0 -102 -61 -157.5t-173 -55.5q-103 0 -167 58q-61 57 -61 163v72h150v-70q0 -50 19 -72.5t62 -22.5q39 0 60 22t21 63v539h150v-539z" />
    <glyph glyph-name="afii10058" unicode="&#x409;" horiz-adv-x="1106" 
d="M1064 226q0 -110 -60.5 -168t-174.5 -58h-322v604h-222v-190q0 -61 -4 -112t-19 -109.5t-40 -98.5t-70 -67t-106 -27v145q51 -1 70 75.5t19 240.5v268h522v-260h187q100 0 160 -66t60 -177zM914 235q0 109 -117 109h-140v-219h140q60 0 88.5 27t28.5 83z" />
    <glyph glyph-name="afii10059" unicode="&#x40a;" horiz-adv-x="1113" 
d="M1064 226q0 -110 -60.5 -168t-174.5 -58h-322v342h-289v-342h-150v729h150v-262h288v262h151v-260h187q100 0 160 -66t60 -177zM914 235q0 109 -117 109h-140v-219h140q60 0 88.5 27t28.5 83z" />
    <glyph glyph-name="afii10060" unicode="&#x40b;" horiz-adv-x="769" 
d="M720 0h-150v276q0 48 -32 75.5t-78 27.5h-115v-379h-150v604h-181v125h504v-125h-173l-1 -100h128q110 0 179 -63t69 -159v-282z" />
    <glyph glyph-name="afii10061" unicode="&#x40c;" horiz-adv-x="750" 
d="M549 951l-126 -150h-70l70 150h126zM725 0h-200l-293 285v-285h-150v729h150v-279l285 279h177l-366 -351z" />
    <glyph glyph-name="uni040D" unicode="&#x40d;" horiz-adv-x="757" 
d="M414 801h-70l-126 150h126zM675 0h-150v504l-293 -504h-150v729h150v-496l289 496h154v-729z" />
    <glyph glyph-name="afii10062" unicode="&#x40e;" horiz-adv-x="718" 
d="M488 933q0 -56 -38 -94t-94 -38q-57 0 -94.5 38t-37.5 95v10h56q9 -66 76 -66q65 0 76 66h56v-11zM696 729l-368 -729h-174l114 226l-253 503h163l172 -345l172 345h174z" />
    <glyph glyph-name="afii10145" unicode="&#x40f;" horiz-adv-x="722" 
d="M658 0h-230v-150h-130v150h-230v729h150v-604h290v604h150v-729z" />
    <glyph glyph-name="afii10017" unicode="&#x410;" horiz-adv-x="722" 
d="M703 0h-151l-50 147h-274l-49 -147h-153l259 729h166zM460 272l-95 285l-95 -285h190z" />
    <glyph glyph-name="afii10018" unicode="&#x411;" horiz-adv-x="722" 
d="M666 226q0 -45 -20 -95.5t-52 -77.5q-63 -53 -184 -53h-328v729h512v-125h-362v-141h163q79 0 135.5 -22t84.5 -59t39.5 -75t11.5 -81zM522 231q0 48 -29 77.5t-82 29.5h-179v-213h179q53 0 82 29.5t29 76.5z" />
    <glyph glyph-name="afii10019" unicode="&#x412;" horiz-adv-x="722" 
d="M666 210q0 -44 -19.5 -86.5t-52.5 -70.5q-63 -53 -184 -53h-328v729h325q110 0 172 -53q66 -58 66 -139q0 -49 -26 -89.5t-74 -60.5q58 -17 89.5 -67.5t31.5 -109.5zM501 521q0 83 -106 83h-163v-165h163q106 0 106 82zM522 219q0 95 -111 95h-179v-189h179q111 0 111 94
z" />
    <glyph glyph-name="afii10020" unicode="&#x413;" horiz-adv-x="611" 
d="M594 604h-362v-604h-150v729h512v-125z" />
    <glyph glyph-name="afii10021" unicode="&#x414;" horiz-adv-x="900" 
d="M865 -150h-130v150h-570v-150h-130v258h104q40 0 65.5 99.5t25.5 253.5v268h520v-621h115v-258zM600 125v479h-220v-190q0 -190 -47 -289h267z" />
    <glyph glyph-name="afii10022" unicode="&#x415;" horiz-adv-x="709" 
d="M627 0h-545v729h527v-125h-377v-165h349v-125h-349v-189h395v-125z" />
    <glyph glyph-name="afii10024" unicode="&#x416;" horiz-adv-x="1093" 
d="M1078 0h-184l-269 285v-285h-150v285l-269 -285h-184l357 378l-313 351h164l245 -279v279h150v-279l245 279h164l-313 -351z" />
    <glyph glyph-name="afii10025" unicode="&#x417;" horiz-adv-x="672" 
d="M633 213q0 -111 -79 -173.5t-220 -62.5q-140 0 -217.5 62t-84.5 179h146q4 -59 46 -90t118 -31q68 0 107.5 26t39.5 72q0 49 -33 81t-104 32h-102v120h76q138 0 138 103q0 41 -34 65.5t-92 24.5q-145 0 -153 -114h-140q0 94 51 151q75 83 235 83q131 0 203.5 -58.5
t72.5 -165.5q0 -93 -63 -140q89 -49 89 -164z" />
    <glyph glyph-name="afii10026" unicode="&#x418;" horiz-adv-x="757" 
d="M675 0h-150v504l-293 -504h-150v729h150v-496l289 496h154v-729z" />
    <glyph glyph-name="afii10027" unicode="&#x419;" horiz-adv-x="757" 
d="M507 916q0 -56 -38 -94t-94 -38t-94 38t-38 95v10h56q9 -66 77 -66q33 0 50.5 15.5t24.5 50.5h56v-11zM675 0h-150v504l-293 -504h-150v729h150v-496l289 496h154v-729z" />
    <glyph glyph-name="afii10028" unicode="&#x41a;" horiz-adv-x="750" 
d="M725 0h-200l-293 285v-285h-150v729h150v-279l285 279h177l-366 -351z" />
    <glyph glyph-name="afii10029" unicode="&#x41b;" horiz-adv-x="729" 
d="M647 0h-150v604h-222v-204q0 -50 -3 -92.5t-11.5 -92.5t-25.5 -88t-42.5 -71t-65.5 -50.5t-91 -17.5v145q51 -1 70 71t19 243v282h522v-729z" />
    <glyph glyph-name="afii10030" unicode="&#x41c;" horiz-adv-x="874" 
d="M792 0h-150v568l-129 -568h-150l-131 568v-568h-150v729h224l132 -580l128 580h226v-729z" />
    <glyph glyph-name="afii10031" unicode="&#x41d;" horiz-adv-x="753" 
d="M671 0h-150v331h-289v-331h-150v729h150v-273h288v273h151v-729z" />
    <glyph glyph-name="afii10032" unicode="&#x41e;" horiz-adv-x="778" 
d="M742 354q0 -77 -27.5 -151.5t-74.5 -124.5q-94 -101 -249 -101t-249 101q-49 52 -75.5 125.5t-26.5 155.5q0 171 102 281q93 101 248 101q156 0 250 -101q102 -110 102 -286zM592 355q0 118 -54.5 188t-146.5 70q-91 0 -146 -69.5t-55 -184.5t55 -184.5t146 -69.5
q90 0 145.5 69t55.5 181z" />
    <glyph glyph-name="afii10033" unicode="&#x41f;" horiz-adv-x="753" 
d="M671 0h-150v604h-289v-604h-150v729h589v-729z" />
    <glyph glyph-name="afii10034" unicode="&#x420;" horiz-adv-x="671" 
d="M639 503q0 -111 -60 -177t-160 -66h-187v-260h-150v729h322q114 0 174.5 -58t60.5 -168zM489 494q0 56 -28.5 83t-88.5 27h-140v-219h140q117 0 117 109z" />
    <glyph glyph-name="afii10035" unicode="&#x421;" horiz-adv-x="722" 
d="M685 249q-7 -125 -91 -198.5t-220 -73.5q-152 0 -241 102.5t-89 278.5q0 177 90 280t244 103q168 0 255 -115q42 -56 49 -144h-143q-12 52 -33 78q-42 53 -123 53q-89 0 -139 -68t-50 -189q0 -119 48.5 -186t135.5 -67q70 0 112 38t49 108h146z" />
    <glyph glyph-name="afii10036" unicode="&#x422;" horiz-adv-x="611" 
d="M598 604h-213v-604h-150v604h-221v125h584v-125z" />
    <glyph glyph-name="afii10037" unicode="&#x423;" horiz-adv-x="718" 
d="M696 729l-368 -729h-174l114 226l-253 503h163l172 -345l172 345h174z" />
    <glyph glyph-name="afii10038" unicode="&#x424;" horiz-adv-x="892" 
d="M862 374q0 -59 -14 -105.5t-37 -75t-52.5 -50t-61 -30t-63 -15t-57 -4.5t-43.5 0h-13v-94h-150v94q-91 0 -133 8q-208 41 -208 272q0 55 14 98.5t33.5 70.5t52 46.5t57.5 28.5t64.5 14t57.5 5.5t50 0.5h12v91h150v-91h12q31 0 50 -0.5t57.5 -5t64 -14t58 -29t52 -46.5
t33.5 -70.5t14 -98.5zM371 188v352h-7q-23 0 -37 -1t-41.5 -5t-45.5 -15t-37 -28.5t-29 -48.5t-10 -72q0 -29 4.5 -53.5t10.5 -42t18 -31.5t21.5 -23.5t26.5 -15.5t26 -9.5t28 -5t26 -2t25.5 0t20.5 0.5zM728 370q0 41 -10 72t-29 48.5t-37 28.5t-45.5 15t-41.5 5t-37 1h-7
v-352q2 0 20.5 -0.5t25.5 0t26 2t28 5t26 9.5t26.5 15.5t21.5 23.5t18 31.5t10.5 42t4.5 53.5z" />
    <glyph glyph-name="afii10039" unicode="&#x425;" horiz-adv-x="667" 
d="M654 0h-171l-145 241l-142 -241h-174l230 367l-222 362h178l132 -226l130 226h174l-215 -357z" />
    <glyph glyph-name="afii10040" unicode="&#x426;" horiz-adv-x="816" 
d="M781 -150h-130v150h-569v729h150v-604h289v604h150v-621h110v-258z" />
    <glyph glyph-name="afii10041" unicode="&#x427;" horiz-adv-x="685" 
d="M624 0h-150v225h-158q-110 0 -179 63t-69 159v282h150v-276q0 -48 32 -75.5t78 -27.5h145v379h151v-729z" />
    <glyph glyph-name="afii10042" unicode="&#x428;" horiz-adv-x="1057" 
d="M967 0h-899v729h150v-604h219v604h150v-604h230v604h150v-729z" />
    <glyph glyph-name="afii10043" unicode="&#x429;" horiz-adv-x="1183" 
d="M1097 -150h-135v150h-894v729h150v-604h229v604h150v-604h230v604h150v-621h120v-258z" />
    <glyph glyph-name="afii10044" unicode="&#x42a;" horiz-adv-x="833" 
d="M801 226q0 -110 -60.5 -168t-174.5 -58h-322v604h-230v125h380v-260h187q100 0 160 -66t60 -177zM651 235q0 109 -117 109h-140v-219h140q60 0 88.5 27t28.5 83z" />
    <glyph glyph-name="afii10045" unicode="&#x42b;" horiz-adv-x="949" 
d="M884 0h-150v729h150v-729zM625 226q0 -110 -60.5 -168t-174.5 -58h-322v729h150v-260h187q100 0 160 -66t60 -177zM475 235q0 109 -117 109h-140v-219h140q60 0 88.5 27t28.5 83z" />
    <glyph glyph-name="afii10046" unicode="&#x42c;" horiz-adv-x="687" 
d="M633 226q0 -110 -60.5 -168t-174.5 -58h-322v729h150v-260h187q100 0 160 -66t60 -177zM483 235q0 109 -117 109h-140v-219h140q60 0 88.5 27t28.5 83z" />
    <glyph glyph-name="afii10047" unicode="&#x42d;" horiz-adv-x="722" 
d="M685 358q0 -176 -89 -278.5t-241 -102.5q-136 0 -220 73.5t-91 198.5h146q7 -70 49 -108t112 -38q78 0 125.5 54.5t56.5 153.5h-292v125h291q-15 84 -64 130.5t-122 46.5q-81 0 -123 -53q-21 -26 -33 -78h-143q7 88 49 144q87 115 255 115q154 0 244 -103t90 -280z" />
    <glyph glyph-name="afii10048" unicode="&#x42e;" horiz-adv-x="1099" 
d="M1033 354q0 -77 -27.5 -151.5t-74.5 -124.5q-94 -101 -239 -101t-239 101q-85 91 -99 233h-136v-311h-150v729h150v-293h139q20 122 96 204q93 101 238 101q78 0 134.5 -24.5t105.5 -76.5q102 -110 102 -286zM883 355q0 120 -50 189t-141 69q-90 0 -140.5 -69t-50.5 -185
t50.5 -185t140.5 -69q89 0 140 68.5t51 181.5z" />
    <glyph glyph-name="afii10049" unicode="&#x42f;" horiz-adv-x="698" 
d="M633 0h-150v260h-61l-221 -260h-179l220 265q-71 14 -118.5 76.5t-47.5 161.5q0 110 60.5 168t174.5 58h322v-729zM483 385v219h-140q-60 0 -88.5 -27t-28.5 -83q0 -109 117 -109h140z" />
    <glyph glyph-name="afii10065" unicode="&#x430;" 
d="M524 0h-152q-16 20 -16 54q-74 -77 -164 -77q-77 0 -126 51q-38 41 -38 111q0 141 159 170l56 10q73 13 88 21q24 13 24 42q0 54 -81 54q-52 0 -73 -16t-26 -58h-135q13 187 231 187q221 0 221 -166v-300q0 -37 32 -66v-17zM355 217v38q-19 -9 -59 -17l-48 -9
q-42 -8 -61 -25.5t-19 -48.5q0 -30 20.5 -47.5t55.5 -17.5q53 0 82 33t29 94z" />
    <glyph glyph-name="afii10066" unicode="&#x431;" horiz-adv-x="606" 
d="M565 263q0 -127 -68 -206.5t-192 -79.5q-128 0 -191.5 70.5t-63.5 244.5q0 48 2 84.5t10.5 83t23 82t41 70.5t63.5 58q59 37 196 54q21 3 34 16t16 24l2 12l104 1q0 -28 -1 -43t-9 -36t-23 -32q-43 -31 -130.5 -40.5t-125.5 -33.5q-83 -51 -84 -130q43 87 169 87
q49 0 95 -23.5t74 -63.5q58 -84 58 -199zM425 262q0 75 -33 122.5t-85 47.5t-85 -46.5t-33 -120.5q0 -77 32.5 -124t85.5 -47q52 0 85 47t33 121z" />
    <glyph glyph-name="afii10067" unicode="&#x432;" horiz-adv-x="572" 
d="M518 155q0 -33 -14.5 -64.5t-38.5 -51.5q-46 -39 -136 -39h-269v540h266q83 0 128 -39q49 -42 49 -103q0 -36 -20.5 -69t-53.5 -43q43 -13 66 -50.5t23 -80.5zM368 380q0 29 -17 39.5t-57 10.5h-94v-97h94q40 0 57 9.5t17 37.5zM379 170q0 33 -17.5 43t-61.5 10h-100
v-113h100q42 0 60.5 13.5t18.5 46.5z" />
    <glyph glyph-name="afii10068" unicode="&#x433;" horiz-adv-x="454" 
d="M408 427h-208v-427h-140v540h348v-113z" />
    <glyph glyph-name="afii10069" unicode="&#x434;" horiz-adv-x="685" 
d="M662 -125h-110v125h-419v-125h-110v226h62q35 0 56 88t21 199v152h418v-439h82v-226zM440 113v314h-138v-51q0 -175 -39 -263h177z" />
    <glyph glyph-name="afii10070" unicode="&#x435;" 
d="M525 250q0 -12 -1 -24h-362q3 -68 20 -95q31 -47 92 -47q80 0 107 68h138q-23 -80 -91 -127.5t-159 -47.5q-115 0 -181 74.5t-66 204.5q0 136 67 214.5t183 78.5q82 0 143.5 -41.5t88.5 -115.5q21 -61 21 -142zM379 319q-4 50 -22 78q-32 45 -87 45q-92 0 -106 -123h215z
" />
    <glyph glyph-name="afii10072" unicode="&#x436;" horiz-adv-x="809" 
d="M788 0h-179l-137 198v-198h-140v198l-137 -198h-179l213 296l-177 244h148l132 -189v189h140v-189l132 189h148l-177 -244z" />
    <glyph glyph-name="afii10073" unicode="&#x437;" horiz-adv-x="546" 
d="M520 160q0 -84 -64 -135q-60 -48 -172 -48q-249 0 -255 180h137q8 -37 27 -51q29 -19 83 -19q49 0 76.5 14t27.5 39q0 13 -1.5 20.5t-8 21t-25 20t-47.5 6.5h-92v110h94q12 0 21.5 1.5t16 5t11.5 6.5t8 9.5t5 10t2.5 10.5t0.5 9.5v10.5v8q0 23 -22 36.5t-59 13.5
q-100 0 -101 -73h-135q2 86 64 134.5t171 48.5q103 0 162.5 -48.5t59.5 -131.5q0 -55 -30 -88q-2 -2 -7.5 -5.5t-6.5 -4.5q59 -37 59 -111z" />
    <glyph glyph-name="afii10074" unicode="&#x438;" horiz-adv-x="615" 
d="M555 0h-140v338l-195 -338h-160v540h140v-338l195 338h160v-540z" />
    <glyph glyph-name="afii10075" unicode="&#x439;" horiz-adv-x="615" 
d="M555 0h-140v338l-195 -338h-160v540h140v-338l195 338h160v-540zM440 712q0 -56 -38 -94t-94 -38t-94 38t-38 95v10h56q9 -66 77 -66q64 0 75 66h56v-11z" />
    <glyph glyph-name="afii10076" unicode="&#x43a;" horiz-adv-x="573" 
d="M549 0h-182l-167 198v-198h-140v540h140v-189l162 189h148l-214 -244z" />
    <glyph glyph-name="afii10077" unicode="&#x43b;" horiz-adv-x="577" 
d="M517 0h-140v427h-133v-61q0 -199 -50.5 -287.5t-164.5 -88.5v135q13 0 24 5t18.5 16t13 23t9 32t6 37t3.5 44t1 46v50v162h413v-540z" />
    <glyph glyph-name="afii10078" unicode="&#x43c;" horiz-adv-x="666" 
d="M606 0h-140v297l-97 -297h-72l-97 297v-297h-140v540h175l98 -327l98 327h175v-540z" />
    <glyph glyph-name="afii10079" unicode="&#x43d;" horiz-adv-x="603" 
d="M543 0h-140v207h-203v-207h-140v540h140v-220h203v220h140v-540z" />
    <glyph glyph-name="afii10080" unicode="&#x43e;" horiz-adv-x="611" 
d="M569 259q0 -130 -72 -206t-195 -76q-125 0 -196 76.5t-71 209.5t71 209.5t195 76.5q127 0 197.5 -76.5t70.5 -213.5zM429 261q0 80 -34.5 127.5t-92.5 47.5q-57 0 -92 -48t-35 -125t35 -125t92 -48q56 0 91.5 47.5t35.5 123.5z" />
    <glyph glyph-name="afii10081" unicode="&#x43f;" horiz-adv-x="603" 
d="M543 0h-140v427h-203v-427h-140v540h483v-540z" />
    <glyph glyph-name="afii10082" unicode="&#x440;" horiz-adv-x="611" 
d="M574 262q0 -123 -64.5 -204.5t-161.5 -81.5q-100 0 -150 88v-282h-140v758h140v-80q50 89 150 89q49 0 95 -23.5t73 -61.5q58 -81 58 -202zM434 260q0 77 -32.5 124.5t-85.5 47.5t-85.5 -47t-32.5 -123t32.5 -122.5t85.5 -46.5q52 0 85 47t33 120z" />
    <glyph glyph-name="afii10083" unicode="&#x441;" 
d="M522 187q-10 -97 -73.5 -153.5t-161.5 -56.5q-120 0 -186.5 74t-66.5 208q0 138 67 214t188 76q101 0 163.5 -56t69.5 -155h-134q-12 53 -34.5 75.5t-65.5 22.5q-62 0 -87 -46q-27 -51 -27 -131q0 -79 30.5 -124t83.5 -45q41 0 64 22.5t36 74.5h134z" />
    <glyph glyph-name="afii10084" unicode="&#x442;" horiz-adv-x="454" 
d="M431 427h-135v-427h-140v427h-135v113h410v-113z" />
    <glyph glyph-name="afii10085" unicode="&#x443;" 
d="M538 540l-217 -639q-16 -48 -34.5 -69t-49.5 -34q-41 -17 -101 -17q-22 0 -50 4v105q22 -6 37 -6q37 0 61 25.5t24 63.5v4v1l-199 562h154l119 -393l112 393h144z" />
    <glyph glyph-name="afii10086" unicode="&#x444;" horiz-adv-x="957" 
d="M920 262q0 -123 -64.5 -204.5t-161.5 -81.5q-100 0 -150 88v-282h-140v282q-50 -88 -150 -88q-97 0 -161.5 81.5t-64.5 204.5q0 121 58 202q27 38 73 61.5t95 23.5q100 0 150 -89v259h140v-259q50 89 150 89q49 0 95 -23.5t73 -61.5q58 -81 58 -202zM404 262
q0 76 -32.5 123t-85.5 47t-85.5 -47.5t-32.5 -124.5q0 -73 33 -120t85 -47q53 0 85.5 46.5t32.5 122.5zM780 260q0 77 -32.5 124.5t-85.5 47.5t-85.5 -47t-32.5 -123t32.5 -122.5t85.5 -46.5q52 0 85 47t33 120z" />
    <glyph glyph-name="afii10087" unicode="&#x445;" 
d="M535 0h-168l-91 168l-92 -168h-168l180 272l-176 268h168l88 -163l87 163h168l-176 -268z" />
    <glyph glyph-name="afii10088" unicode="&#x446;" horiz-adv-x="652" 
d="M629 -125h-110v125h-459v540h140v-427h203v427h140v-439h86v-226z" />
    <glyph glyph-name="afii10089" unicode="&#x447;" horiz-adv-x="578" 
d="M518 0h-140v163h-98q-92 0 -156 44.5t-64 137.5v195h140v-194q0 -35 21 -52.5t57 -17.5h100v264h140v-540z" />
    <glyph glyph-name="afii10090" unicode="&#x448;" horiz-adv-x="886" 
d="M826 0h-766v540h140v-427h171v427h140v-427h175v427h140v-540z" />
    <glyph glyph-name="afii10091" unicode="&#x449;" horiz-adv-x="968" 
d="M945 -125h-110v125h-775v540h140v-427h171v427h140v-427h174v427h140v-439h120v-226z" />
    <glyph glyph-name="afii10092" unicode="&#x44a;" horiz-adv-x="693" 
d="M663 168q0 -34 -14.5 -72t-38.5 -57q-46 -39 -136 -39h-283v427h-171v113h311v-181h148q85 0 134.5 -53.5t49.5 -137.5zM524 180q0 34 -24 51.5t-65 17.5h-104v-139h109q84 0 84 70z" />
    <glyph glyph-name="afii10093" unicode="&#x44b;" horiz-adv-x="811" 
d="M532 168q0 -34 -14.5 -72t-38.5 -57q-46 -39 -136 -39h-283v540h140v-181h118q106 0 160 -52t54 -139zM393 180q0 34 -23.5 51.5t-65.5 17.5h-104v-139h109q84 0 84 70zM718 0h-140v540h140v-540z" />
    <glyph glyph-name="afii10094" unicode="&#x44c;" horiz-adv-x="562" 
d="M532 182q0 -82 -47.5 -132t-141.5 -50h-283v540h140v-181h135q197 0 197 -177zM393 180q0 34 -23.5 51.5t-65.5 17.5h-104v-139h109q84 0 84 70z" />
    <glyph glyph-name="afii10095" unicode="&#x44d;" horiz-adv-x="564" 
d="M522 259q0 -134 -66.5 -208t-186.5 -74q-98 0 -161.5 56.5t-73.5 153.5h134q13 -52 36 -74.5t64 -22.5q43 0 72 30.5t38 86.5h-175v113h174q-8 44 -22 70q-25 46 -87 46q-43 0 -65.5 -22.5t-34.5 -75.5h-134q7 99 69.5 155t163.5 56q121 0 188 -76t67 -214z" />
    <glyph glyph-name="afii10096" unicode="&#x44e;" horiz-adv-x="888" 
d="M792 259q0 -131 -67.5 -206.5t-189.5 -75.5q-109 0 -174 60t-79 170h-82v-207h-140v540h140v-220h82q15 109 79.5 169t172.5 60q126 0 192 -75.5t66 -214.5zM652 261q0 81 -30 128t-87 47q-56 0 -86.5 -47t-30.5 -126t30.5 -126t86.5 -47q55 0 86 47t31 124z" />
    <glyph glyph-name="afii10097" unicode="&#x44f;" horiz-adv-x="596" 
d="M531 0h-140v207h-44l-143 -207h-179l155 218q-61 17 -95 63t-34 104q0 33 14.5 64.5t38.5 51.5q46 39 136 39h291v-540zM391 317v113h-122q-42 0 -60.5 -12.5t-18.5 -45.5t18 -44t61 -11h122z" />
    <glyph glyph-name="uni0450" unicode="&#x450;" 
d="M307 609h-70l-126 150h126zM525 250q0 -12 -1 -24h-362q3 -68 20 -95q31 -47 92 -47q80 0 107 68h138q-23 -80 -91 -127.5t-159 -47.5q-115 0 -181 74.5t-66 204.5q0 136 67 214.5t183 78.5q82 0 143.5 -41.5t88.5 -115.5q21 -61 21 -142zM379 319q-4 50 -22 78
q-32 45 -87 45q-92 0 -106 -123h215z" />
    <glyph glyph-name="afii10071" unicode="&#x451;" 
d="M242 621h-110v122h110v-122zM428 621h-110v122h110v-122zM525 250q0 -12 -1 -24h-362q3 -68 20 -95q31 -47 92 -47q80 0 107 68h138q-23 -80 -91 -127.5t-159 -47.5q-115 0 -181 74.5t-66 204.5q0 136 67 214.5t183 78.5q82 0 143.5 -41.5t88.5 -115.5q21 -61 21 -142z
M379 319q-4 50 -22 78q-32 45 -87 45q-92 0 -106 -123h215z" />
    <glyph glyph-name="afii10099" unicode="&#x452;" horiz-adv-x="611" 
d="M541 0q0 -100 -55 -146q-49 -41 -121 -41h-50v119q46 0 70 33q16 24 16 67v269q0 43 -16 67q-24 33 -70 33q-47 0 -77.5 -30t-30.5 -76v-295h-140v588h-55v79h55v62h140v-62h154v-79h-154v-155q58 87 158 87q72 0 121 -41q55 -46 55 -146v-333z" />
    <glyph glyph-name="afii10100" unicode="&#x453;" horiz-adv-x="454" 
d="M395 759l-126 -150h-70l70 150h126zM408 427h-208v-427h-140v540h348v-113z" />
    <glyph glyph-name="afii10101" unicode="&#x454;" 
d="M522 187q-10 -97 -73.5 -153.5t-161.5 -56.5q-120 0 -186.5 74t-66.5 208q0 138 67 214t188 76q101 0 163.5 -56t69.5 -155h-134q-12 53 -34.5 75.5t-65.5 22.5q-62 0 -87 -46q-14 -26 -22 -70h174v-113h-175q9 -56 38 -86.5t72 -30.5q41 0 64 22.5t36 74.5h134z" />
    <glyph glyph-name="afii10102" unicode="&#x455;" 
d="M520 160q0 -84 -64 -135q-60 -48 -172 -48q-249 0 -255 180h137q8 -37 27 -51q29 -19 83 -19q49 0 76.5 14t27.5 39q0 16 -10.5 26t-36.5 18l-167 52q-64 21 -88 45q-30 33 -30 88q0 83 59.5 131.5t162.5 48.5q109 0 171 -48.5t64 -134.5h-135q-1 73 -101 73
q-37 0 -59 -13.5t-22 -36.5q0 -16 10 -24.5t39 -17.5l177 -51q106 -31 106 -136z" />
    <glyph glyph-name="afii10103" unicode="&#x456;" horiz-adv-x="278" 
d="M207 0h-140v540h140v-540zM207 604h-140v125h140v-125z" />
    <glyph glyph-name="afii10104" unicode="&#x457;" horiz-adv-x="278" 
d="M101 621h-110v122h110v-122zM287 621h-110v122h110v-122zM207 0h-140v540h140v-540z" />
    <glyph glyph-name="afii10105" unicode="&#x458;" horiz-adv-x="278" 
d="M210 -94q0 -66 -29 -95t-94 -29q-36 0 -83 5v112q13 -4 25 -4q23 0 32 9.5t9 32.5v603h140v-634zM210 604h-140v125h140v-125z" />
    <glyph glyph-name="afii10106" unicode="&#x459;" horiz-adv-x="923" 
d="M875 182q0 -82 -47.5 -132t-141.5 -50h-283v427h-159v-51q0 -199 -50.5 -287.5t-164.5 -88.5v135q13 0 24 5t18.5 16t13 23t9 32t6 37t3.5 44t1 46v50v152h439v-181h135q197 0 197 -177zM736 180q0 34 -24 51.5t-65 17.5h-104v-139h109q84 0 84 70z" />
    <glyph glyph-name="afii10107" unicode="&#x45a;" horiz-adv-x="903" 
d="M878 182q0 -82 -47.5 -132t-141.5 -50h-283v246h-203v-246h-140v540h140v-181h203v181h140v-181h135q197 0 197 -177zM739 180q0 34 -23.5 51.5t-65.5 17.5h-104v-139h109q84 0 84 70z" />
    <glyph glyph-name="afii10108" unicode="&#x45b;" horiz-adv-x="611" 
d="M541 0h-140v301q0 43 -16 67q-24 33 -70 33q-47 0 -77.5 -30t-30.5 -76v-295h-140v588h-55v79h55v62h140v-62h154v-79h-154v-155q58 87 158 87q72 0 121 -41q55 -46 55 -146v-333z" />
    <glyph glyph-name="afii10109" unicode="&#x45c;" horiz-adv-x="573" 
d="M446 759l-126 -150h-70l70 150h126zM549 0h-182l-167 198v-198h-140v540h140v-189l162 189h148l-214 -244z" />
    <glyph glyph-name="uni045D" unicode="&#x45d;" horiz-adv-x="615" 
d="M342 609h-70l-126 150h126zM555 0h-140v338l-195 -338h-160v540h140v-338l195 338h160v-540z" />
    <glyph glyph-name="afii10110" unicode="&#x45e;" 
d="M406 741q0 -56 -38 -94t-94 -38q-57 0 -94.5 38t-37.5 95v10h56q9 -66 76 -66q65 0 76 66h56v-11zM538 540l-217 -639q-16 -48 -34.5 -69t-49.5 -34q-41 -17 -101 -17q-22 0 -50 4v105q22 -6 37 -6q37 0 61 25.5t24 63.5v4v1l-199 562h154l119 -393l112 393h144z" />
    <glyph glyph-name="afii10193" unicode="&#x45f;" horiz-adv-x="608" 
d="M544 0h-187v-125h-110v125h-187v540h140v-427h204v427h140v-540z" />
    <glyph glyph-name="uni048C" unicode="&#x48c;" horiz-adv-x="687" 
d="M483 235q0 109 -117 109h-140v-219h140q60 0 88.5 27t28.5 83zM633 226q0 -110 -60.5 -168t-174.5 -58h-322v555h-70v79h70v95h150v-95h79v-79h-79v-86h187q100 0 160 -66t60 -177z" />
    <glyph glyph-name="uni048D" unicode="&#x48d;" horiz-adv-x="562" 
d="M401 170q0 33 -17.5 43t-61.5 10h-122v-113h122q42 0 60.5 13.5t18.5 46.5zM540 155q0 -33 -14.5 -64.5t-38.5 -51.5q-46 -39 -136 -39h-291v392h-80v79h80v69h140v-69h79v-79h-79v-59h116q109 0 165.5 -46.5t58.5 -131.5z" />
    <glyph glyph-name="uni048E" unicode="&#x48e;" horiz-adv-x="667" 
d="M483 494q0 56 -28.5 83t-88.5 27h-140v-219h140q13 0 31 2l-45 45l56 56l60 -60q15 26 15 66zM633 503q0 -112 -61 -179l47 -47l-56 -56l-57 57q-40 -18 -93 -18h-187v-260h-150v729h322q114 0 174.5 -58t60.5 -168z" />
    <glyph glyph-name="uni048F" unicode="&#x48f;" horiz-adv-x="611" 
d="M434 260q0 77 -32.5 124.5t-85.5 47.5t-85.5 -47t-32.5 -123t32.5 -122.5t85.5 -46.5q23 0 45 11l-55 55l56 56l52 -52q20 40 20 97zM574 262q0 -118 -60 -199l59 -59l-56 -56l-60 60q-51 -32 -109 -32q-100 0 -150 88v-282h-140v758h140v-80q50 89 150 89q49 0 95 -23.5
t73 -61.5q58 -81 58 -202z" />
    <glyph glyph-name="afii10050" unicode="&#x490;" horiz-adv-x="611" 
d="M586 604h-362v-604h-150v729l362 -1v136h150v-260z" />
    <glyph glyph-name="afii10098" unicode="&#x491;" horiz-adv-x="454" 
d="M412 427h-208v-427h-140v540h220v126h128v-239z" />
    <glyph glyph-name="uni0492" unicode="&#x492;" horiz-adv-x="611" 
d="M594 604h-362v-165h191v-125h-191v-314h-150v314h-78v125h78v290h512v-125z" />
    <glyph glyph-name="uni0493" unicode="&#x493;" horiz-adv-x="454" 
d="M408 427h-208v-98h104v-90h-104v-239h-140v239h-66v90h66v211h348v-113z" />
    <glyph glyph-name="uni0494" unicode="&#x494;" horiz-adv-x="611" 
d="M599 50q0 -96 -69 -159t-179 -63h-37v125h25q46 0 78 27.5t32 75.5v220q0 48 -32 75.5t-78 27.5h-115v-379h-150v729h512v-125h-362v-100h127q110 0 179 -63t69 -159v-232z" />
    <glyph glyph-name="uni0495" unicode="&#x495;" horiz-adv-x="584" 
d="M534 0q0 -100 -55 -146q-49 -41 -121 -41h-50v119q46 0 70 33q16 24 16 67v79q0 56 -26.5 78t-79.5 22q-44 0 -66 -25t-22 -61v-125h-140v540h348v-113h-208v-154q20 32 52 44.5t86 12.5q36 0 77.5 -11t63.5 -30q55 -46 55 -146v-143z" />
    <glyph glyph-name="uni0496" unicode="&#x496;" horiz-adv-x="1093" 
d="M1078 -150h-135v150h-44l-274 285v-285h-150v285l-274 -285h-179l357 378l-313 351h164l245 -279v279h150v-279l245 279h164l-313 -351l255 -270h102v-258z" />
    <glyph glyph-name="uni0497" unicode="&#x497;" horiz-adv-x="809" 
d="M788 -125h-110v125h-69l-137 198v-198h-140v198l-137 -198h-179l213 296l-177 244h148l132 -189v189h140v-189l132 189h148l-177 -244l140 -195h73v-226z" />
    <glyph glyph-name="uni0498" unicode="&#x498;" horiz-adv-x="672" 
d="M633 213q0 -103 -69 -165t-194 -70q78 -46 78 -117q0 -44 -38.5 -69.5t-105.5 -25.5q-40 0 -79 10v47q27 -6 57 -6q76 0 76 50q0 33 -16.5 58t-61.5 55q-114 11 -178 72t-70 166h146q4 -59 46 -90t118 -31q68 0 107.5 26t39.5 72q0 49 -33 81t-104 32h-102v120h76
q138 0 138 103q0 41 -34 65.5t-92 24.5q-145 0 -153 -114h-140q0 94 51 151q75 83 235 83q131 0 203.5 -58.5t72.5 -165.5q0 -93 -63 -140q89 -49 89 -164z" />
    <glyph glyph-name="uni0499" unicode="&#x499;" horiz-adv-x="546" 
d="M520 160q0 -84 -64 -135q-47 -38 -129 -46q79 -47 79 -118q0 -44 -38.5 -69.5t-105.5 -25.5q-40 0 -79 10v47q27 -6 57 -6q76 0 76 50q0 33 -16.5 57t-59.5 55q-205 15 -211 178h137q8 -37 27 -51q29 -19 83 -19q49 0 76.5 14t27.5 39q0 13 -1.5 20.5t-8 21t-25 20
t-47.5 6.5h-92v110h94q12 0 21.5 1.5t16 5t11.5 6.5t8 9.5t5 10t2.5 10.5t0.5 9.5v10.5v8q0 23 -22 36.5t-59 13.5q-100 0 -101 -73h-135q2 86 64 134.5t171 48.5q103 0 162.5 -48.5t59.5 -131.5q0 -55 -30 -88q-2 -2 -7.5 -5.5t-6.5 -4.5q59 -37 59 -111z" />
    <glyph glyph-name="uni049A" unicode="&#x49a;" horiz-adv-x="750" 
d="M725 -150h-130v150h-70l-293 285v-285h-150v729h150v-279l285 279h177l-366 -351l284 -270h113v-258z" />
    <glyph glyph-name="uni049B" unicode="&#x49b;" horiz-adv-x="573" 
d="M549 -125h-110v125h-72l-167 198v-198h-140v540h140v-189l162 189h148l-214 -244l167 -195h86v-226z" />
    <glyph glyph-name="uni049C" unicode="&#x49c;" horiz-adv-x="722" 
d="M725 0h-200l-170 165v-65h-79v142l-44 43v-285h-150v729h150v-279l44 43v146h79v-69l162 159h177l-339 -325v-52z" />
    <glyph glyph-name="uni049D" unicode="&#x49d;" horiz-adv-x="573" 
d="M549 0h-182l-52 62v-27h-79v120l-36 43v-198h-140v540h140v-189l36 42v126h79v-34l47 55h148l-195 -222v-44z" />
    <glyph glyph-name="uni049E" unicode="&#x49e;" horiz-adv-x="722" 
d="M724 0h-186l-314 285v-285h-150v587h-72v79h72v63h150v-63h77v-79h-77v-137l285 279h177l-366 -351z" />
    <glyph glyph-name="uni049F" unicode="&#x49f;" horiz-adv-x="573" 
d="M548 0h-182l-167 198v-198h-140v442h-51v59h51v39h140v-39h54v-59h-54v-91l162 189h148l-214 -244z" />
    <glyph glyph-name="uni04A0" unicode="&#x4a0;" horiz-adv-x="912" 
d="M887 0h-200l-293 285v-285h-150v604h-230v125h380v-279l285 279h177l-366 -351z" />
    <glyph glyph-name="uni04A1" unicode="&#x4a1;" horiz-adv-x="704" 
d="M680 0h-182l-167 198v-198h-140v427h-171v113h311v-189l162 189h148l-214 -244z" />
    <glyph glyph-name="uni04A2" unicode="&#x4a2;" horiz-adv-x="753" 
d="M791 -150h-135v150h-135v331h-289v-331h-150v729h150v-273h288v273h151v-621h120v-258z" />
    <glyph glyph-name="uni04A3" unicode="&#x4a3;" horiz-adv-x="608" 
d="M629 -125h-110v125h-116v207h-203v-207h-140v540h140v-220h203v220h140v-439h86v-226z" />
    <glyph glyph-name="uni04A4" unicode="&#x4a4;" horiz-adv-x="985" 
d="M968 604h-312v-604h-149v331h-289v-331h-150v729h150v-273h288v273h462v-125z" />
    <glyph glyph-name="uni04A5" unicode="&#x4a5;" horiz-adv-x="787" 
d="M741 427h-198v-427h-140v207h-203v-207h-140v540h140v-220h203v220h338v-113z" />
    <glyph glyph-name="uni04A6" unicode="&#x4a6;" horiz-adv-x="1092" 
d="M1032 50q0 -96 -69 -159t-179 -63h-37v125h25q46 0 78 27.5t32 75.5v220q0 48 -32 75.5t-78 27.5h-115v-379h-150v604h-289v-604h-150v729h589v-225h127q110 0 179 -63t69 -159v-232z" />
    <glyph glyph-name="uni04A7" unicode="&#x4a7;" horiz-adv-x="925" 
d="M877 0q0 -100 -55 -146q-49 -41 -121 -41h-50v119q46 0 70 33q16 24 16 67v79q0 56 -26.5 78t-79.5 22q-44 0 -66 -25t-22 -61v-125h-140v427h-203v-427h-140v540h483v-267q20 32 52 44.5t86 12.5q36 0 77.5 -11t63.5 -30q55 -46 55 -146v-143z" />
    <glyph glyph-name="uni04A8" unicode="&#x4a8;" horiz-adv-x="722" 
d="M685 249q-7 -125 -91 -198.5t-220 -73.5q-152 0 -241 102.5t-89 278.5q0 177 90 280t244 103q168 0 255 -115q42 -56 49 -144h-143q-12 52 -33 78q-42 53 -123 53q-89 0 -139 -68t-50 -189q0 -119 48.5 -186t135.5 -67q70 0 112 38t49 108h146z" />
    <glyph glyph-name="uni04A9" unicode="&#x4a9;" 
d="M522 187q-10 -97 -73.5 -153.5t-161.5 -56.5q-120 0 -186.5 74t-66.5 208q0 138 67 214t188 76q101 0 163.5 -56t69.5 -155h-134q-12 53 -34.5 75.5t-65.5 22.5q-62 0 -87 -46q-27 -51 -27 -131q0 -79 30.5 -124t83.5 -45q41 0 64 22.5t36 74.5h134z" />
    <glyph glyph-name="uni04AA" unicode="&#x4aa;" horiz-adv-x="722" 
d="M685 249q-6 -116 -79.5 -188t-193.5 -82q78 -48 78 -118q0 -44 -38.5 -69.5t-105.5 -25.5q-40 0 -79 10v47q27 -6 57 -6q76 0 76 50q0 33 -17 58t-62 56q-129 17 -203 117.5t-74 259.5q0 177 90 280t244 103q168 0 255 -115q42 -56 49 -144h-143q-12 52 -33 78
q-42 53 -123 53q-89 0 -139 -68t-50 -189q0 -119 48.5 -186t135.5 -67q70 0 112 38t49 108h146z" />
    <glyph glyph-name="uni04AB" unicode="&#x4ab;" 
d="M522 187q-9 -87 -61 -141.5t-135 -65.5q80 -47 80 -119q0 -44 -38.5 -69.5t-105.5 -25.5q-40 0 -79 10v47q27 -6 57 -6q76 0 76 50q0 33 -17 58t-62 56q-97 15 -150 87.5t-53 190.5q0 138 67 214t188 76q101 0 163.5 -56t69.5 -155h-134q-12 53 -34.5 75.5t-65.5 22.5
q-62 0 -87 -46q-27 -51 -27 -131q0 -79 30.5 -124t83.5 -45q41 0 64 22.5t36 74.5h134z" />
    <glyph glyph-name="uni04AC" unicode="&#x4ac;" horiz-adv-x="611" 
d="M598 604h-213v-496h120v-258h-135v150h-135v604h-221v125h584v-125z" />
    <glyph glyph-name="uni04AD" unicode="&#x4ad;" horiz-adv-x="454" 
d="M431 427h-135v-326h86v-226h-110v125h-116v427h-135v113h410v-113z" />
    <glyph glyph-name="uni04AE" unicode="&#x4ae;" horiz-adv-x="667" 
d="M650 729l-231 -459v-270h-150v270l-242 459h167l149 -322l139 322h168z" />
    <glyph glyph-name="uni04AF" unicode="&#x4af;" horiz-adv-x="667" 
d="M620 540l-201 -459v-270h-150v270l-212 459h167l119 -322l109 322h168z" />
    <glyph glyph-name="uni04B0" unicode="&#x4b0;" horiz-adv-x="667" 
d="M650 729l-231 -459v-21h200v-104h-200v-145h-150v145h-200v104h200v21l-242 459h167l149 -322l139 322h168z" />
    <glyph glyph-name="uni04B1" unicode="&#x4b1;" horiz-adv-x="667" 
d="M620 540l-201 -459h200v-104h-200v-166h-150v166h-200v104h200l-212 459h167l119 -322l109 322h168z" />
    <glyph glyph-name="uni04B2" unicode="&#x4b2;" horiz-adv-x="667" 
d="M653 -150h-130v150h-48l-140 253l-139 -253h-174l230 367l-222 362h178l128 -240l134 240h174l-225 -357l166 -264h68v-258z" />
    <glyph glyph-name="uni04B3" unicode="&#x4b3;" 
d="M535 -125h-110v125h-58l-91 168l-92 -168h-168l180 272l-176 268h168l88 -163l87 163h168l-176 -268l113 -171h67v-226z" />
    <glyph glyph-name="uni04B4" unicode="&#x4b4;" horiz-adv-x="951" 
d="M904 -150h-130v150h-569v604h-191v125h524v-125h-183v-479h289v604h150v-621h110v-258z" />
    <glyph glyph-name="uni04B5" unicode="&#x4b5;" horiz-adv-x="738" 
d="M715 -125h-110v125h-469v427h-115v113h370v-113h-115v-314h203v427h140v-439h96v-226z" />
    <glyph glyph-name="uni04B6" unicode="&#x4b6;" horiz-adv-x="781" 
d="M734 -150h-130v150h-130v225h-158q-110 0 -179 63t-69 159v282h150v-276q0 -48 32 -75.5t78 -27.5h145v379h151v-621h110v-258z" />
    <glyph glyph-name="uni04B7" unicode="&#x4b7;" horiz-adv-x="627" 
d="M604 -125h-110v125h-116v163h-98q-92 0 -156 44.5t-64 137.5v195h140v-194q0 -35 21 -52.5t57 -17.5h100v264h140v-439h86v-226z" />
    <glyph glyph-name="uni04B8" unicode="&#x4b8;" horiz-adv-x="685" 
d="M624 0h-150v225h-87v-85h-79v85q-104 0 -172 64t-68 158v282h150v-276q0 -42 25.5 -68.5t64.5 -32.5v87h79v-89h86v379h151v-729z" />
    <glyph glyph-name="uni04B9" unicode="&#x4b9;" horiz-adv-x="578" 
d="M518 0h-140v163h-51v-83h-79v84q-81 7 -134.5 52t-53.5 129v195h140v-194q0 -53 48 -66v99h79v-103h51v264h140v-540z" />
    <glyph glyph-name="uni04BA" unicode="&#x4ba;" horiz-adv-x="685" 
d="M624 0h-150v276q0 48 -32 75.5t-78 27.5h-145v-379h-151v729h150v-225h158q110 0 179 -63t69 -159v-282z" />
    <glyph glyph-name="uni04BB" unicode="&#x4bb;" horiz-adv-x="578" 
d="M518 0h-140v194q0 35 -21 52.5t-57 17.5h-100v-264h-140v540h140v-163h98q59 0 106.5 -17t80.5 -59.5t33 -105.5v-195z" />
    <glyph glyph-name="uni04BC" unicode="&#x4bc;" horiz-adv-x="957" 
d="M774 469q-7 70 -49 108t-112 38q-65 0 -109 -38t-62 -108h332zM920 363h-491q0 -124 49.5 -191t139.5 -67q81 0 123 53q21 26 33 78h143q-7 -88 -49 -144q-87 -115 -255 -115q-154 0 -244 103t-90 280v3q-134 1 -194 59.5t-60 148.5q0 83 40 128.5t113 45.5
q61 0 97.5 -34t41.5 -93h-80q-8 32 -21.5 45.5t-38.5 13.5q-38 0 -52 -28q-16 -30 -16 -78t18 -75t51 -27h111q26 128 110 200t210 72q142 0 226.5 -96t84.5 -282z" />
    <glyph glyph-name="uni04BD" unicode="&#x4bd;" horiz-adv-x="716" 
d="M543 356q-12 43 -34 61.5t-61 18.5q-62 0 -87 -46q-9 -18 -14 -34h196zM682 187q-10 -97 -73.5 -153.5t-161.5 -56.5q-120 0 -186.5 74t-66.5 208v1q-86 1 -130 51t-44 112q0 55 27 85.5t75 30.5q41 0 66 -22t28 -62h-54q-8 39 -40 39q-24 0 -35 -18q-11 -20 -11 -53
q0 -31 12.5 -49t33.5 -18h82q21 93 84.5 143t160.5 50q101 0 163.5 -56t69.5 -155v-78h-348q0 -81 30 -125.5t84 -44.5q41 0 64 22.5t36 74.5h134z" />
    <glyph glyph-name="uni04BE" unicode="&#x4be;" horiz-adv-x="957" 
d="M774 469q-7 70 -49 108t-112 38q-65 0 -109 -38t-62 -108h332zM920 363h-491q0 -124 49.5 -191t139.5 -67q81 0 123 53q21 26 33 78h143q-7 -88 -49 -144q-73 -98 -211 -113q79 -46 79 -118q0 -44 -38.5 -69.5t-105.5 -25.5q-40 0 -79 10v47q27 -6 57 -6q76 0 76 50
q0 33 -16.5 57.5t-60.5 54.5q-135 15 -212.5 116t-77.5 265v3q-134 1 -194 59.5t-60 148.5q0 83 40 128.5t113 45.5q61 0 97.5 -34t41.5 -93h-80q-8 32 -21.5 45.5t-38.5 13.5q-38 0 -52 -28q-16 -30 -16 -78t18 -75t51 -27h111q26 128 110 200t210 72q142 0 226.5 -96
t84.5 -282z" />
    <glyph glyph-name="uni04BF" unicode="&#x4bf;" horiz-adv-x="716" 
d="M543 356q-12 43 -34 61.5t-61 18.5q-62 0 -87 -46q-9 -18 -14 -34h196zM682 187q-9 -86 -61 -141t-134 -66q80 -48 80 -119q0 -44 -38.5 -69.5t-105.5 -25.5q-40 0 -79 10v47q27 -6 57 -6q76 0 76 50q0 33 -17 58t-62 56q-98 14 -151 86.5t-53 191.5v1q-86 1 -130 51
t-44 112q0 55 27 85.5t75 30.5q41 0 66 -22t28 -62h-54q-8 39 -40 39q-24 0 -35 -18q-11 -20 -11 -53q0 -31 12.5 -49t33.5 -18h82q21 93 84.5 143t160.5 50q101 0 163.5 -56t69.5 -155v-78h-348q0 -81 30 -125.5t84 -44.5q41 0 64 22.5t36 74.5h134z" />
    <glyph glyph-name="uni04C0" unicode="&#x4c0;" horiz-adv-x="278" 
d="M213 0h-150v729h150v-729z" />
    <glyph glyph-name="uni04C1" unicode="&#x4c1;" horiz-adv-x="1093" 
d="M682 933q0 -56 -38 -94t-94 -38t-94 38t-38 95v10h56q9 -66 77 -66q64 0 75 66h56v-11zM1078 0h-184l-269 285v-285h-150v285l-269 -285h-184l357 378l-313 351h164l245 -279v279h150v-279l245 279h164l-313 -351z" />
    <glyph glyph-name="uni04C2" unicode="&#x4c2;" horiz-adv-x="809" 
d="M534 741q0 -56 -38 -94t-94 -38t-94 38t-38 95v10h56q9 -66 77 -66q64 0 75 66h56v-11zM788 0h-179l-137 198v-198h-140v198l-137 -198h-179l213 296l-177 244h148l132 -189v189h140v-189l132 189h148l-177 -244z" />
    <glyph glyph-name="uni04C3" unicode="&#x4c3;" horiz-adv-x="750" 
d="M694 729l-366 -351h56q110 0 179 -63t69 -159v-106q0 -96 -69 -159t-179 -63h-37v125h25q46 0 78 27.5t32 75.5v94q0 48 -32 75.5t-78 27.5h-140v-253h-150v729h150v-279l285 279h177z" />
    <glyph glyph-name="uni04C4" unicode="&#x4c4;" horiz-adv-x="573" 
d="M510 540l-214 -244l19 1q82 0 129 -48.5t47 -138.5v-111q0 -90 -47 -138.5t-129 -48.5h-50v119q86 0 86 100v47q0 100 -86 100h-65v-178h-140v540h140v-189l162 189h148z" />
    <glyph glyph-name="uni04C7" unicode="&#x4c7;" horiz-adv-x="722" 
d="M657 50q0 -96 -69 -159t-179 -63h-37v125h25q46 0 78 27.5t32 75.5v275h-289v-331h-150v729h150v-273h288v273h151v-679z" />
    <glyph glyph-name="uni04C8" unicode="&#x4c8;" horiz-adv-x="608" 
d="M543 0q0 -90 -47 -138.5t-129 -48.5h-50v119q86 0 86 100v175h-203v-207h-140v540h140v-220h203v220h140v-540z" />
    <glyph glyph-name="uni04CB" unicode="&#x4cb;" horiz-adv-x="685" 
d="M624 0h-130v-150h-130v258h110v117h-158q-110 0 -179 63t-69 159v282h150v-276q0 -48 32 -75.5t78 -27.5h145v379h151v-729z" />
    <glyph glyph-name="uni04CC" unicode="&#x4cc;" horiz-adv-x="578" 
d="M518 0h-116v-125h-110v226h86v62h-98q-92 0 -156 44.5t-64 137.5v195h140v-194q0 -35 21 -52.5t57 -17.5h100v264h140v-540z" />
    <glyph glyph-name="uni04D0" unicode="&#x4d0;" horiz-adv-x="722" 
d="M500 933q0 -56 -38 -94t-94 -38t-94 38t-38 95v10h56q9 -66 77 -66q64 0 75 66h56v-11zM703 0h-151l-50 147h-274l-49 -147h-153l259 729h166zM460 272l-95 285l-95 -285h190z" />
    <glyph glyph-name="uni04D1" unicode="&#x4d1;" 
d="M403 741q0 -56 -38 -94t-94 -38t-94 38t-38 95v10h56q9 -66 77 -66q64 0 75 66h56v-11zM524 0h-152q-16 20 -16 54q-74 -77 -164 -77q-77 0 -126 51q-38 41 -38 111q0 141 159 170l56 10q73 13 88 21q24 13 24 42q0 54 -81 54q-52 0 -73 -16t-26 -58h-135q13 187 231 187
q221 0 221 -166v-300q0 -37 32 -66v-17zM355 217v38q-19 -9 -59 -17l-48 -9q-42 -8 -61 -25.5t-19 -48.5q0 -30 20.5 -47.5t55.5 -17.5q53 0 82 33t29 94z" />
    <glyph glyph-name="uni04D2" unicode="&#x4d2;" horiz-adv-x="722" 
d="M330 801h-110v122h110v-122zM516 801h-110v122h110v-122zM703 0h-151l-50 147h-274l-49 -147h-153l259 729h166zM460 272l-95 285l-95 -285h190z" />
    <glyph glyph-name="uni04D3" unicode="&#x4d3;" 
d="M233 609h-110v122h110v-122zM419 609h-110v122h110v-122zM524 0h-152q-16 20 -16 54q-74 -77 -164 -77q-77 0 -126 51q-38 41 -38 111q0 141 159 170l56 10q73 13 88 21q24 13 24 42q0 54 -81 54q-52 0 -73 -16t-26 -58h-135q13 187 231 187q221 0 221 -166v-300
q0 -37 32 -66v-17zM355 217v38q-19 -9 -59 -17l-48 -9q-42 -8 -61 -25.5t-19 -48.5q0 -30 20.5 -47.5t55.5 -17.5q53 0 82 33t29 94z" />
    <glyph glyph-name="uni04D4" unicode="&#x4d4;" horiz-adv-x="1000" 
d="M966 0h-536v152h-223l-53 -152h-153l263 729h682v-125h-366v-165h339v-125h-339v-189h386v-125zM430 277v327h-67l-114 -327h181z" />
    <glyph glyph-name="uni04D5" unicode="&#x4d5;" horiz-adv-x="889" 
d="M857 250q0 -12 -1 -24h-362q0 -62 20 -93q32 -49 94 -49q36 0 65.5 19.5t38.5 48.5h138q-23 -80 -91 -127.5t-159 -47.5q-136 0 -200 104q-89 -105 -205 -105q-77 0 -122.5 44.5t-45.5 120.5q0 145 159 171l56 10q69 11 88 21q24 13 24 40q0 53 -85 53q-47 0 -68.5 -16.5
t-26.5 -57.5h-131q3 187 228 187q117 0 175 -50q62 50 155 50q84 0 145.5 -41.5t89.5 -115.5q21 -60 21 -142zM354 216v38q-22 -13 -59 -19l-48 -7q-80 -11 -80 -73q0 -31 20.5 -48.5t55.5 -17.5q54 0 82.5 32.5t28.5 94.5zM711 319q-11 123 -109 123t-107 -123h216z" />
    <glyph glyph-name="uni04D6" unicode="&#x4d6;" horiz-adv-x="709" 
d="M478 933q0 -56 -38 -94t-94 -38q-57 0 -94.5 38t-37.5 95v10h56q9 -66 76 -66q65 0 76 66h56v-11zM627 0h-545v729h527v-125h-377v-165h349v-125h-349v-189h395v-125z" />
    <glyph glyph-name="uni04D7" unicode="&#x4d7;" 
d="M404 741q0 -56 -38 -94t-94 -38t-94 38t-38 95v10h56q9 -66 77 -66q64 0 75 66h56v-11zM525 250q0 -12 -1 -24h-362q3 -68 20 -95q31 -47 92 -47q80 0 107 68h138q-23 -80 -91 -127.5t-159 -47.5q-115 0 -181 74.5t-66 204.5q0 136 67 214.5t183 78.5q82 0 143.5 -41.5
t88.5 -115.5q21 -61 21 -142zM379 319q-4 50 -22 78q-32 45 -87 45q-92 0 -106 -123h215z" />
    <glyph glyph-name="uni04D8" unicode="&#x4d8;" horiz-adv-x="722" 
d="M522 249h-332q7 -70 49 -108t112 -38q65 0 109 38t62 108zM685 358q0 -176 -89 -278.5t-241 -102.5q-142 0 -226.5 96t-84.5 282h491q0 124 -49.5 191t-139.5 67q-81 0 -123 -53q-21 -26 -33 -78h-143q7 88 49 144q87 115 255 115q154 0 244 -103t90 -280z" />
    <glyph glyph-name="afii10846" unicode="&#x4d9;" 
d="M522 267q0 -138 -67 -214t-188 -76q-101 0 -163.5 56t-69.5 155v78h348q0 79 -30.5 124.5t-83.5 45.5q-41 0 -64 -22.5t-36 -74.5h-134q10 97 73.5 153.5t161.5 56.5q120 0 186.5 -74t66.5 -208zM369 169h-196q12 -43 34 -61.5t61 -18.5q62 0 87 46q9 18 14 34z" />
    <glyph glyph-name="uni04DA" unicode="&#x4da;" horiz-adv-x="722" 
d="M313 801h-110v122h110v-122zM499 801h-110v122h110v-122zM522 249h-332q7 -70 49 -108t112 -38q65 0 109 38t62 108zM685 358q0 -176 -89 -278.5t-241 -102.5q-142 0 -226.5 96t-84.5 282h491q0 124 -49.5 191t-139.5 67q-81 0 -123 -53q-21 -26 -33 -78h-143
q7 88 49 144q87 115 255 115q154 0 244 -103t90 -280z" />
    <glyph glyph-name="uni04DB" unicode="&#x4db;" 
d="M231 609h-110v122h110v-122zM417 609h-110v122h110v-122zM522 267q0 -138 -67 -214t-188 -76q-101 0 -163.5 56t-69.5 155v78h348q0 79 -30.5 124.5t-83.5 45.5q-41 0 -64 -22.5t-36 -74.5h-134q10 97 73.5 153.5t161.5 56.5q120 0 186.5 -74t66.5 -208zM369 169h-196
q12 -43 34 -61.5t61 -18.5q62 0 87 46q9 18 14 34z" />
    <glyph glyph-name="uni04DC" unicode="&#x4dc;" horiz-adv-x="1093" 
d="M512 801h-110v122h110v-122zM698 801h-110v122h110v-122zM1078 0h-184l-269 285v-285h-150v285l-269 -285h-184l357 378l-313 351h164l245 -279v279h150v-279l245 279h164l-313 -351z" />
    <glyph glyph-name="uni04DD" unicode="&#x4dd;" horiz-adv-x="809" 
d="M364 609h-110v122h110v-122zM550 609h-110v122h110v-122zM788 0h-179l-137 198v-198h-140v198l-137 -198h-179l213 296l-177 244h148l132 -189v189h140v-189l132 189h148l-177 -244z" />
    <glyph glyph-name="uni04DE" unicode="&#x4de;" horiz-adv-x="672" 
d="M293 801h-110v122h110v-122zM479 801h-110v122h110v-122zM633 213q0 -111 -79 -173.5t-220 -62.5q-140 0 -217.5 62t-84.5 179h146q4 -59 46 -90t118 -31q68 0 107.5 26t39.5 72q0 49 -33 81t-104 32h-102v120h76q138 0 138 103q0 41 -34 65.5t-92 24.5q-145 0 -153 -114
h-140q0 94 51 151q75 83 235 83q131 0 203.5 -58.5t72.5 -165.5q0 -93 -63 -140q89 -49 89 -164z" />
    <glyph glyph-name="uni04DF" unicode="&#x4df;" horiz-adv-x="546" 
d="M245 609h-110v122h110v-122zM431 609h-110v122h110v-122zM520 160q0 -84 -64 -135q-60 -48 -172 -48q-249 0 -255 180h137q8 -37 27 -51q29 -19 83 -19q49 0 76.5 14t27.5 39q0 13 -1.5 20.5t-8 21t-25 20t-47.5 6.5h-92v110h94q12 0 21.5 1.5t16 5t11.5 6.5t8 9.5t5 10
t2.5 10.5t0.5 9.5v10.5v8q0 23 -22 36.5t-59 13.5q-100 0 -101 -73h-135q2 86 64 134.5t171 48.5q103 0 162.5 -48.5t59.5 -131.5q0 -55 -30 -88q-2 -2 -7.5 -5.5t-6.5 -4.5q59 -37 59 -111z" />
    <glyph glyph-name="uni04E0" unicode="&#x4e0;" horiz-adv-x="672" 
d="M633 213q0 -111 -79 -173.5t-220 -62.5q-140 0 -217.5 62t-84.5 179h146q4 -59 46 -90t118 -31q68 0 107.5 26t39.5 72q0 49 -33 81t-104 32h-102v120h76q138 0 138 103q0 41 -34 65.5t-92 24.5q-145 0 -153 -114h-140q0 94 51 151q75 83 235 83q131 0 203.5 -58.5
t72.5 -165.5q0 -93 -63 -140q89 -49 89 -164z" />
    <glyph glyph-name="uni04E1" unicode="&#x4e1;" horiz-adv-x="546" 
d="M520 160q0 -84 -64 -135q-60 -48 -172 -48q-249 0 -255 180h137q8 -37 27 -51q29 -19 83 -19q49 0 76.5 14t27.5 39q0 13 -1.5 20.5t-8 21t-25 20t-47.5 6.5h-92v110h94q12 0 21.5 1.5t16 5t11.5 6.5t8 9.5t5 10t2.5 10.5t0.5 9.5v10.5v8q0 23 -22 36.5t-59 13.5
q-100 0 -101 -73h-135q2 86 64 134.5t171 48.5q103 0 162.5 -48.5t59.5 -131.5q0 -55 -30 -88q-2 -2 -7.5 -5.5t-6.5 -4.5q59 -37 59 -111z" />
    <glyph glyph-name="uni04E2" unicode="&#x4e2;" horiz-adv-x="757" 
d="M528 801h-299v79h299v-79zM675 0h-150v504l-293 -504h-150v729h150v-496l289 496h154v-729z" />
    <glyph glyph-name="uni04E3" unicode="&#x4e3;" horiz-adv-x="615" 
d="M457 609h-299v79h299v-79zM555 0h-140v338l-195 -338h-160v540h140v-338l195 338h160v-540z" />
    <glyph glyph-name="uni04E4" unicode="&#x4e4;" horiz-adv-x="757" 
d="M340 801h-110v122h110v-122zM526 801h-110v122h110v-122zM675 0h-150v504l-293 -504h-150v729h150v-496l289 496h154v-729z" />
    <glyph glyph-name="uni04E5" unicode="&#x4e5;" horiz-adv-x="615" 
d="M270 609h-110v122h110v-122zM456 609h-110v122h110v-122zM555 0h-140v338l-195 -338h-160v540h140v-338l195 338h160v-540z" />
    <glyph glyph-name="uni04E6" unicode="&#x4e6;" horiz-adv-x="778" 
d="M352 801h-110v122h110v-122zM538 801h-110v122h110v-122zM742 354q0 -77 -27.5 -151.5t-74.5 -124.5q-94 -101 -249 -101t-249 101q-49 52 -75.5 125.5t-26.5 155.5q0 171 102 281q93 101 248 101q156 0 250 -101q102 -110 102 -286zM592 355q0 118 -54.5 188t-146.5 70
q-91 0 -146 -69.5t-55 -184.5t55 -184.5t146 -69.5q90 0 145.5 69t55.5 181z" />
    <glyph glyph-name="uni04E7" unicode="&#x4e7;" horiz-adv-x="611" 
d="M263 609h-110v122h110v-122zM449 609h-110v122h110v-122zM569 259q0 -130 -72 -206t-195 -76q-125 0 -196 76.5t-71 209.5t71 209.5t195 76.5q127 0 197.5 -76.5t70.5 -213.5zM429 261q0 80 -34.5 127.5t-92.5 47.5q-57 0 -92 -48t-35 -125t35 -125t92 -48
q56 0 91.5 47.5t35.5 123.5z" />
    <glyph glyph-name="uni04E8" unicode="&#x4e8;" horiz-adv-x="778" 
d="M742 354q0 -77 -27.5 -151.5t-74.5 -124.5q-94 -101 -249 -101t-249 101q-49 52 -75.5 125.5t-26.5 155.5q0 171 102 281q93 101 248 101q156 0 250 -101q102 -110 102 -286zM590 400q-11 99 -63.5 156t-135.5 57q-82 0 -135.5 -57.5t-63.5 -155.5h398zM591 321h-399
q9 -99 62.5 -157.5t136.5 -58.5t137 59t63 157z" />
    <glyph glyph-name="uni04E9" unicode="&#x4e9;" horiz-adv-x="611" 
d="M569 259q0 -130 -72 -206t-195 -76q-125 0 -196 76.5t-71 209.5t71 209.5t195 76.5q127 0 197.5 -76.5t70.5 -213.5zM426 303q-8 62 -41.5 97.5t-82.5 35.5t-82.5 -36t-41.5 -97h248zM427 224h-249q8 -61 41.5 -97.5t82.5 -36.5q48 0 82 36.5t43 97.5z" />
    <glyph glyph-name="uni04EA" unicode="&#x4ea;" horiz-adv-x="778" 
d="M352 801h-110v122h110v-122zM538 801h-110v122h110v-122zM742 354q0 -77 -27.5 -151.5t-74.5 -124.5q-94 -101 -249 -101t-249 101q-49 52 -75.5 125.5t-26.5 155.5q0 171 102 281q93 101 248 101q156 0 250 -101q102 -110 102 -286zM590 400q-11 99 -63.5 156t-135.5 57
q-82 0 -135.5 -57.5t-63.5 -155.5h398zM591 321h-399q9 -99 62.5 -157.5t136.5 -58.5t137 59t63 157z" />
    <glyph glyph-name="uni04EB" unicode="&#x4eb;" horiz-adv-x="611" 
d="M263 609h-110v122h110v-122zM449 609h-110v122h110v-122zM569 259q0 -130 -72 -206t-195 -76q-125 0 -196 76.5t-71 209.5t71 209.5t195 76.5q127 0 197.5 -76.5t70.5 -213.5zM426 303q-8 62 -41.5 97.5t-82.5 35.5t-82.5 -36t-41.5 -97h248zM427 224h-249
q8 -61 41.5 -97.5t82.5 -36.5q48 0 82 36.5t43 97.5z" />
    <glyph glyph-name="uni04EC" unicode="&#x4ec;" horiz-adv-x="722" 
d="M313 801h-110v122h110v-122zM499 801h-110v122h110v-122zM685 358q0 -176 -89 -278.5t-241 -102.5q-136 0 -220 73.5t-91 198.5h146q7 -70 49 -108t112 -38q78 0 125.5 54.5t56.5 153.5h-292v125h291q-15 84 -64 130.5t-122 46.5q-81 0 -123 -53q-21 -26 -33 -78h-143
q7 88 49 144q87 115 255 115q154 0 244 -103t90 -280z" />
    <glyph glyph-name="uni04ED" unicode="&#x4ed;" horiz-adv-x="564" 
d="M229 609h-110v122h110v-122zM415 609h-110v122h110v-122zM522 259q0 -134 -66.5 -208t-186.5 -74q-98 0 -161.5 56.5t-73.5 153.5h134q13 -52 36 -74.5t64 -22.5q43 0 72 30.5t38 86.5h-175v113h174q-8 44 -22 70q-25 46 -87 46q-43 0 -65.5 -22.5t-34.5 -75.5h-134
q7 99 69.5 155t163.5 56q121 0 188 -76t67 -214z" />
    <glyph glyph-name="uni04EE" unicode="&#x4ee;" horiz-adv-x="718" 
d="M505 801h-299v79h299v-79zM696 729l-368 -729h-174l114 226l-253 503h163l172 -345l172 345h174z" />
    <glyph glyph-name="uni04EF" unicode="&#x4ef;" 
d="M423 609h-299v79h299v-79zM538 540l-217 -639q-16 -48 -34.5 -69t-49.5 -34q-41 -17 -101 -17q-22 0 -50 4v105q22 -6 37 -6q37 0 61 25.5t24 63.5v4v1l-199 562h154l119 -393l112 393h144z" />
    <glyph glyph-name="uni04F0" unicode="&#x4f0;" horiz-adv-x="718" 
d="M318 801h-110v122h110v-122zM504 801h-110v122h110v-122zM696 729l-368 -729h-174l114 226l-253 503h163l172 -345l172 345h174z" />
    <glyph glyph-name="uni04F1" unicode="&#x4f1;" 
d="M236 609h-110v122h110v-122zM422 609h-110v122h110v-122zM538 540l-217 -639q-16 -48 -34.5 -69t-49.5 -34q-41 -17 -101 -17q-22 0 -50 4v105q22 -6 37 -6q37 0 61 25.5t24 63.5v4v1l-199 562h154l119 -393l112 393h144z" />
    <glyph glyph-name="uni04F2" unicode="&#x4f2;" horiz-adv-x="718" 
d="M422 948l-126 -147h-70l70 147h126zM610 948l-126 -147h-70l70 147h126zM696 729l-368 -729h-174l114 226l-253 503h163l172 -345l172 345h174z" />
    <glyph glyph-name="uni04F3" unicode="&#x4f3;" 
d="M340 756l-126 -147h-70l70 147h126zM528 756l-126 -147h-70l70 147h126zM538 540l-217 -639q-16 -48 -34.5 -69t-49.5 -34q-41 -17 -101 -17q-22 0 -50 4v105q22 -6 37 -6q37 0 61 25.5t24 63.5v4v1l-199 562h154l119 -393l112 393h144z" />
    <glyph glyph-name="uni04F4" unicode="&#x4f4;" horiz-adv-x="685" 
d="M308 801h-110v122h110v-122zM494 801h-110v122h110v-122zM624 0h-150v225h-158q-110 0 -179 63t-69 159v282h150v-276q0 -48 32 -75.5t78 -27.5h145v379h151v-729z" />
    <glyph glyph-name="uni04F5" unicode="&#x4f5;" horiz-adv-x="578" 
d="M251 609h-110v122h110v-122zM437 609h-110v122h110v-122zM518 0h-140v163h-98q-92 0 -156 44.5t-64 137.5v195h140v-194q0 -35 21 -52.5t57 -17.5h100v264h140v-540z" />
    <glyph glyph-name="uni04F8" unicode="&#x4f8;" horiz-adv-x="949" 
d="M438 801h-110v122h110v-122zM624 801h-110v122h110v-122zM884 0h-150v729h150v-729zM625 226q0 -110 -60.5 -168t-174.5 -58h-322v729h150v-260h187q100 0 160 -66t60 -177zM475 235q0 109 -117 109h-140v-219h140q60 0 88.5 27t28.5 83z" />
    <glyph glyph-name="uni04F9" unicode="&#x4f9;" horiz-adv-x="811" 
d="M351 609h-110v122h110v-122zM537 609h-110v122h110v-122zM532 168q0 -34 -14.5 -72t-38.5 -57q-46 -39 -136 -39h-283v540h140v-181h118q106 0 160 -52t54 -139zM393 180q0 34 -23.5 51.5t-65.5 17.5h-104v-139h109q84 0 84 70zM718 0h-140v540h140v-540z" />
    <glyph glyph-name="baht" unicode="&#xe3f;" horiz-adv-x="722" 
d="M666 210q0 -94 -66.5 -152t-189.5 -58h-13v-83h-80v83h-235v729h235v83h80v-83h10q110 0 174 -55.5t64 -136.5q0 -47 -23 -81t-77 -69q121 -71 121 -177zM501 521q0 81 -104 83v-165q104 2 104 82zM317 439v165h-85v-165h85zM522 219q0 95 -111 95h-14v-189h14
q111 0 111 94zM317 314h-85v-189h85v189z" />
    <glyph glyph-name="Ddotbelow" unicode="&#x1e0c;" horiz-adv-x="722" 
d="M681 365q0 -174 -89 -280q-72 -85 -230 -85h-285v729h285q84 0 138.5 -20t91.5 -64q89 -106 89 -280zM531 364q0 240 -169 240h-135v-479h135q169 0 169 239zM432 -205h-140v140h140v-140z" />
    <glyph glyph-name="ddotbelow" unicode="&#x1e0d;" horiz-adv-x="611" 
d="M545 0h-140v62q-54 -71 -149 -71q-104 0 -165.5 79.5t-61.5 198.5q0 122 65 201t162 79q98 0 149 -79v259h140v-729zM405 267q0 77 -32 121t-86 44q-53 0 -85.5 -44.5t-32.5 -118.5t32.5 -117.5t85.5 -43.5t85.5 43t32.5 116zM376 -205h-140v140h140v-140z" />
    <glyph glyph-name="Dlinebelow" unicode="&#x1e0e;" horiz-adv-x="722" 
d="M681 365q0 -174 -89 -280q-72 -85 -230 -85h-285v729h285q84 0 138.5 -20t91.5 -64q89 -106 89 -280zM531 364q0 240 -169 240h-135v-479h135q169 0 169 239zM511 -174h-299v79h299v-79z" />
    <glyph glyph-name="dlinebelow" unicode="&#x1e0f;" horiz-adv-x="611" 
d="M545 0h-140v62q-54 -71 -149 -71q-104 0 -165.5 79.5t-61.5 198.5q0 122 65 201t162 79q98 0 149 -79v259h140v-729zM405 267q0 77 -32 121t-86 44q-53 0 -85.5 -44.5t-32.5 -118.5t32.5 -117.5t85.5 -43.5t85.5 43t32.5 116zM454 -174h-299v79h299v-79z" />
    <glyph glyph-name="Hdotbelow" unicode="&#x1e24;" horiz-adv-x="722" 
d="M657 0h-150v331h-289v-331h-150v729h150v-273h289v273h150v-729zM433 -205h-140v140h140v-140z" />
    <glyph glyph-name="hdotbelow" unicode="&#x1e25;" horiz-adv-x="611" 
d="M541 0h-140v330q0 100 -86 100q-47 0 -77.5 -30t-30.5 -76v-324h-140v729h140v-267q58 87 158 87q80 0 128 -48t48 -139v-362zM374 -205h-140v140h140v-140z" />
    <glyph glyph-name="Hdieresis" unicode="&#x1e26;" horiz-adv-x="722" 
d="M657 0h-150v331h-289v-331h-150v729h150v-273h289v273h150v-729zM329 797h-126v115h126v-115zM524 797h-126v115h126v-115z" />
    <glyph glyph-name="hdieresis" unicode="&#x1e27;" horiz-adv-x="611" 
d="M541 0h-140v330q0 100 -86 100q-47 0 -77.5 -30t-30.5 -76v-324h-140v729h140v-267q58 87 158 87q80 0 128 -48t48 -139v-362zM271 797h-126v115h126v-115zM466 797h-126v115h126v-115z" />
    <glyph glyph-name="Hbrevebelow" unicode="&#x1e2a;" horiz-adv-x="722" 
d="M657 0h-150v331h-289v-331h-150v729h150v-273h289v273h150v-729zM543 -74q-12 -122 -182 -122q-81 0 -129.5 30t-49.5 92h71q8 -40 110 -40q103 0 109 40h71z" />
    <glyph glyph-name="hbrevebelow" unicode="&#x1e2b;" horiz-adv-x="611" 
d="M541 0h-140v330q0 100 -86 100q-47 0 -77.5 -30t-30.5 -76v-324h-140v729h140v-267q58 87 158 87q80 0 128 -48t48 -139v-362zM484 -74q-12 -122 -182 -122q-81 0 -129.5 30t-49.5 92h71q8 -40 110 -40q103 0 109 40h71z" />
    <glyph glyph-name="Ldotbelow" unicode="&#x1e36;" horiz-adv-x="611" 
d="M579 0h-499v729h150v-604h349v-125zM400 -205h-140v140h140v-140z" />
    <glyph glyph-name="ldotbelow" unicode="&#x1e37;" horiz-adv-x="278" 
d="M207 0h-140v729h140v-729zM209 -205h-140v140h140v-140z" />
    <glyph glyph-name="Ldotbelowmacron" unicode="&#x1e38;" horiz-adv-x="611" 
d="M579 0h-499v729h150v-604h349v-125zM400 -205h-140v140h140v-140zM304 815h-299v79h299v-79z" />
    <glyph glyph-name="ldotbelowmacron" unicode="&#x1e39;" horiz-adv-x="278" 
d="M207 0h-140v729h140v-729zM209 -205h-140v140h140v-140zM286 815h-299v79h299v-79z" />
    <glyph glyph-name="Mdotbelow" unicode="&#x1e42;" horiz-adv-x="833" 
d="M776 0h-150v568l-129 -568h-150l-131 568v-568h-150v729h224l132 -580l128 580h226v-729zM487 -205h-140v140h140v-140z" />
    <glyph glyph-name="mdotbelow" unicode="&#x1e43;" horiz-adv-x="889" 
d="M824 0h-140v360q0 32 -20.5 51t-55.5 19q-45 0 -70.5 -28t-25.5 -78v-324h-140v360q0 32 -20.5 51t-55.5 19q-45 0 -70.5 -28t-25.5 -78v-324h-140v540h139v-67q35 41 68.5 58.5t79.5 17.5q106 0 147 -80q60 80 158 80q81 0 126.5 -44t45.5 -123v-382zM515 -205h-140v140
h140v-140z" />
    <glyph glyph-name="Ndotaccent" unicode="&#x1e44;" horiz-adv-x="722" 
d="M661 0h-150l-293 504v-504h-150v729h154l289 -496v496h150v-729zM432 784h-140v140h140v-140z" />
    <glyph glyph-name="ndotaccent" unicode="&#x1e45;" horiz-adv-x="611" 
d="M546 0h-140v333q0 97 -90 97q-51 0 -82 -29t-31 -77v-324h-140v540h140v-78q58 87 162 87q86 0 133.5 -49t47.5 -138v-362zM376 605h-140v140h140v-140z" />
    <glyph glyph-name="Ndotbelow" unicode="&#x1e46;" horiz-adv-x="722" 
d="M661 0h-150l-293 504v-504h-150v729h154l289 -496v496h150v-729zM431 -205h-140v140h140v-140z" />
    <glyph glyph-name="ndotbelow" unicode="&#x1e47;" horiz-adv-x="611" 
d="M546 0h-140v333q0 97 -90 97q-51 0 -82 -29t-31 -77v-324h-140v540h140v-78q58 87 162 87q86 0 133.5 -49t47.5 -138v-362zM376 -205h-140v140h140v-140z" />
    <glyph glyph-name="Rdotaccent" unicode="&#x1e58;" horiz-adv-x="722" 
d="M677 0h-161q-14 26 -18.5 50t-4.5 75l2 77q0 46 -22 66.5t-71 20.5h-172v-289h-150v729h391q94 0 145 -54.5t51 -142.5q0 -132 -123 -180q27 -11 40 -17.5t26.5 -21.5t18 -27t9 -44t5.5 -63t2 -92q0 -42 32 -60v-27zM517 511q0 49 -23 71t-83 22h-181v-190h181
q61 0 83.5 23t22.5 74zM432 784h-140v140h140v-140z" />
    <glyph glyph-name="rdotaccent" unicode="&#x1e59;" horiz-adv-x="389" 
d="M370 406q-25 4 -44 4q-123 0 -123 -123v-287h-140v540h140v-106q22 55 62 85t88 30q9 0 17 -1v-142zM273 605h-140v140h140v-140z" />
    <glyph glyph-name="Rdotbelow" unicode="&#x1e5a;" horiz-adv-x="722" 
d="M677 0h-161q-14 26 -18.5 50t-4.5 75l2 77q0 46 -22 66.5t-71 20.5h-172v-289h-150v729h391q94 0 145 -54.5t51 -142.5q0 -132 -123 -180q27 -11 40 -17.5t26.5 -21.5t18 -27t9 -44t5.5 -63t2 -92q0 -42 32 -60v-27zM517 511q0 49 -23 71t-83 22h-181v-190h181
q61 0 83.5 23t22.5 74zM431 -205h-140v140h140v-140z" />
    <glyph glyph-name="rdotbelow" unicode="&#x1e5b;" horiz-adv-x="389" 
d="M370 406q-25 4 -44 4q-123 0 -123 -123v-287h-140v540h140v-106q22 55 62 85t88 30q9 0 17 -1v-142zM203 -205h-140v140h140v-140z" />
    <glyph glyph-name="Rdotbelowmacron" unicode="&#x1e5c;" horiz-adv-x="722" 
d="M677 0h-161q-14 26 -18.5 50t-4.5 75l2 77q0 46 -22 66.5t-71 20.5h-172v-289h-150v729h391q94 0 145 -54.5t51 -142.5q0 -132 -123 -180q27 -11 40 -17.5t26.5 -21.5t18 -27t9 -44t5.5 -63t2 -92q0 -42 32 -60v-27zM517 511q0 49 -23 71t-83 22h-181v-190h181
q61 0 83.5 23t22.5 74zM431 -205h-140v140h140v-140zM510 815h-299v79h299v-79z" />
    <glyph glyph-name="rdotbelowmacron" unicode="&#x1e5d;" horiz-adv-x="389" 
d="M370 406q-25 4 -44 4q-123 0 -123 -123v-287h-140v540h140v-106q22 55 62 85t88 30q9 0 17 -1v-142zM203 -205h-140v140h140v-140zM351 645h-299v79h299v-79z" />
    <glyph glyph-name="Sdotbelow" unicode="&#x1e62;" horiz-adv-x="667" 
d="M633 219q0 -110 -78.5 -170.5t-220.5 -60.5q-141 0 -221.5 62.5t-80.5 178.5h146q0 -58 43.5 -89.5t120.5 -31.5q69 0 108 24t39 69q0 43 -30 64t-107 36l-102 20q-111 22 -158 66.5t-47 129.5q0 107 72.5 165.5t203.5 58.5q135 0 210.5 -60t75.5 -174h-140
q0 55 -40.5 84.5t-112.5 29.5q-58 0 -92 -24.5t-34 -65.5q0 -40 29 -59.5t109 -35.5l114 -22q102 -20 147.5 -65t45.5 -130zM398 -205h-140v140h140v-140z" />
    <glyph glyph-name="sdotbelow" unicode="&#x1e63;" 
d="M520 160q0 -82 -61 -125.5t-175 -43.5q-249 0 -255 180h137q9 -41 34 -55.5t76 -14.5q104 0 104 46q0 22 -47 37l-167 52q-71 22 -94.5 51t-23.5 82q0 83 59.5 131.5t162.5 48.5q109 0 171 -48.5t64 -134.5h-135q-1 73 -101 73q-37 0 -59 -13.5t-22 -36.5q0 -17 10 -25.5
t39 -16.5l177 -51q106 -31 106 -129v-7zM348 -205h-140v140h140v-140z" />
    <glyph glyph-name="Tdotbelow" unicode="&#x1e6c;" horiz-adv-x="611" 
d="M598 604h-213v-604h-150v604h-221v125h584v-125zM376 -205h-140v140h140v-140z" />
    <glyph glyph-name="tdotbelow" unicode="&#x1e6d;" horiz-adv-x="333" 
d="M301 0q-6 0 -34.5 -2t-46.5 -2q-70 0 -103.5 28.5t-33.5 91.5v320h-69v93h69v145h140v-145h78v-93h-78v-282q0 -36 9 -47.5t37 -11.5q11 0 32 3v-98zM237 -205h-140v140h140v-140z" />
    <glyph glyph-name="Tlinebelow" unicode="&#x1e6e;" horiz-adv-x="611" 
d="M598 604h-213v-604h-150v604h-221v125h584v-125zM455 -174h-299v79h299v-79z" />
    <glyph glyph-name="tlinebelow" unicode="&#x1e6f;" horiz-adv-x="333" 
d="M301 0q-6 0 -34.5 -2t-46.5 -2q-70 0 -103.5 28.5t-33.5 91.5v320h-69v93h69v145h140v-145h78v-93h-78v-282q0 -36 9 -47.5t37 -11.5q11 0 32 3v-98zM315 -174h-299v79h299v-79z" />
    <glyph glyph-name="Wgrave" unicode="&#x1e80;" horiz-adv-x="944" 
d="M932 729l-202 -729h-135l-122 569l-119 -569h-135l-206 729h159l113 -546l113 546h148l118 -547l109 547h159zM525 786h-106l-135 135h165z" />
    <glyph glyph-name="wgrave" unicode="&#x1e81;" horiz-adv-x="778" 
d="M766 540l-153 -540h-145l-81 381l-86 -381h-144l-152 540h145l86 -378l82 378h140l81 -378l82 378h145zM439 598h-100l-126 154h156z" />
    <glyph glyph-name="Wacute" unicode="&#x1e82;" horiz-adv-x="944" 
d="M932 729l-202 -729h-135l-122 569l-119 -569h-135l-206 729h159l113 -546l113 546h148l118 -547l109 547h159zM660 921l-135 -135h-106l76 135h165z" />
    <glyph glyph-name="wacute" unicode="&#x1e83;" horiz-adv-x="778" 
d="M766 540l-153 -540h-145l-81 381l-86 -381h-144l-152 540h145l86 -378l82 378h140l81 -378l82 378h145zM565 752l-126 -154h-100l70 154h156z" />
    <glyph glyph-name="Wdieresis" unicode="&#x1e84;" horiz-adv-x="944" 
d="M932 729l-202 -729h-135l-122 569l-119 -569h-135l-206 729h159l113 -546l113 546h148l118 -547l109 547h159zM438 797h-126v115h126v-115zM633 797h-126v115h126v-115z" />
    <glyph glyph-name="wdieresis" unicode="&#x1e85;" horiz-adv-x="778" 
d="M766 540l-153 -540h-145l-81 381l-86 -381h-144l-152 540h145l86 -378l82 378h140l81 -378l82 378h145zM354 618h-126v115h126v-115zM549 618h-126v115h126v-115z" />
    <glyph glyph-name="Zdotbelow" unicode="&#x1e92;" horiz-adv-x="611" 
d="M578 0h-548v125l373 479h-373v125h548v-125l-372 -479h372v-125zM374 -205h-140v140h140v-140z" />
    <glyph glyph-name="zdotbelow" unicode="&#x1e93;" horiz-adv-x="500" 
d="M468 0h-447v113l267 314h-249v113h420v-113l-265 -314h274v-113zM320 -205h-140v140h140v-140z" />
    <glyph glyph-name="tdieresis" unicode="&#x1e97;" horiz-adv-x="333" 
d="M301 0q-6 0 -34.5 -2t-46.5 -2q-70 0 -103.5 28.5t-33.5 91.5v320h-69v93h69v145h140v-145h78v-93h-78v-282q0 -36 9 -47.5t37 -11.5q11 0 32 3v-98zM119 742h-126v115h126v-115zM314 742h-126v115h126v-115z" />
    <glyph glyph-name="Adotbelow" unicode="&#x1ea0;" horiz-adv-x="722" 
d="M703 0h-154l-48 147h-273l-49 -147h-153l259 729h166zM460 272l-95 285l-95 -285h190zM431 -205h-140v140h140v-140z" />
    <glyph glyph-name="adotbelow" unicode="&#x1ea1;" 
d="M524 0h-152q-16 20 -16 68q-74 -77 -164 -77q-71 0 -117.5 40t-46.5 115q0 72 38.5 110t120.5 53l56 10q12 2 32 5t28.5 4.5t21 5.5t17.5 9.5t9 15t4 23.5q0 54 -81 54q-52 0 -73 -16t-26 -58h-135q13 187 231 187q221 0 221 -166v-300q0 -37 32 -66v-17zM355 231v24
q-19 -9 -59 -17l-48 -9q-45 -8 -62.5 -22.5t-17.5 -44.5q0 -58 76 -58q53 0 82 33t29 94zM341 -205h-140v140h140v-140z" />
    <glyph glyph-name="Ahookabove" unicode="&#x1ea2;" horiz-adv-x="722" 
d="M703 0h-154l-48 147h-273l-49 -147h-153l259 729h166zM460 272l-95 285l-95 -285h190zM480 899q0 -23 -11.5 -38.5t-43.5 -34.5q-19 -11 -24 -18t-5 -25h-62q0 27 10 44t37 35q18 13 23.5 19t5.5 16q0 16 -12 26t-31 10q-45 0 -45 -51h-67q0 104 111 104q50 0 82 -24.5
t32 -62.5z" />
    <glyph glyph-name="ahookabove" unicode="&#x1ea3;" 
d="M524 0h-152q-16 20 -16 68q-74 -77 -164 -77q-71 0 -117.5 40t-46.5 115q0 72 38.5 110t120.5 53l56 10q12 2 32 5t28.5 4.5t21 5.5t17.5 9.5t9 15t4 23.5q0 54 -81 54q-52 0 -73 -16t-26 -58h-135q13 187 231 187q221 0 221 -166v-300q0 -37 32 -66v-17zM355 231v24
q-19 -9 -59 -17l-48 -9q-45 -8 -62.5 -22.5t-17.5 -44.5q0 -58 76 -58q53 0 82 33t29 94zM383 710q0 -23 -11.5 -38.5t-43.5 -34.5q-19 -11 -24 -18t-5 -25h-62q0 27 10 44t37 35q18 13 23.5 19t5.5 16q0 16 -12 26t-31 10q-45 0 -45 -51h-67q0 104 111 104q50 0 82 -24.5
t32 -62.5z" />
    <glyph glyph-name="Acircumflexacute" unicode="&#x1ea4;" horiz-adv-x="722" 
d="M703 0h-154l-48 147h-273l-49 -147h-153l259 729h166zM460 272l-95 285l-95 -285h190zM556 1077l-135 -135h-106l76 135h165zM560 787h-94l-98 70l-99 -70h-91l130 135h128z" />
    <glyph glyph-name="acircumflexacute" unicode="&#x1ea5;" 
d="M524 0h-152q-16 20 -16 68q-74 -77 -164 -77q-71 0 -117.5 40t-46.5 115q0 72 38.5 110t120.5 53l56 10q12 2 32 5t28.5 4.5t21 5.5t17.5 9.5t9 15t4 23.5q0 54 -81 54q-52 0 -73 -16t-26 -58h-135q13 187 231 187q221 0 221 -166v-300q0 -37 32 -66v-17zM355 231v24
q-19 -9 -59 -17l-48 -9q-45 -8 -62.5 -22.5t-17.5 -44.5q0 -58 76 -58q53 0 82 33t29 94zM459 888l-135 -135h-106l76 135h165zM463 598h-94l-98 70l-99 -70h-91l130 135h128z" />
    <glyph glyph-name="Acircumflexgrave" unicode="&#x1ea6;" horiz-adv-x="722" 
d="M703 0h-154l-48 147h-273l-49 -147h-153l259 729h166zM460 272l-95 285l-95 -285h190zM421 942h-106l-135 135h165zM560 787h-94l-98 70l-99 -70h-91l130 135h128z" />
    <glyph glyph-name="acircumflexgrave" unicode="&#x1ea7;" 
d="M524 0h-152q-16 20 -16 68q-74 -77 -164 -77q-71 0 -117.5 40t-46.5 115q0 72 38.5 110t120.5 53l56 10q12 2 32 5t28.5 4.5t21 5.5t17.5 9.5t9 15t4 23.5q0 54 -81 54q-52 0 -73 -16t-26 -58h-135q13 187 231 187q221 0 221 -166v-300q0 -37 32 -66v-17zM355 231v24
q-19 -9 -59 -17l-48 -9q-45 -8 -62.5 -22.5t-17.5 -44.5q0 -58 76 -58q53 0 82 33t29 94zM324 753h-106l-135 135h165zM463 598h-94l-98 70l-99 -70h-91l130 135h128z" />
    <glyph glyph-name="Acircumflexhookabove" unicode="&#x1ea8;" horiz-adv-x="722" 
d="M703 0h-154l-48 147h-273l-49 -147h-153l259 729h166zM460 272l-95 285l-95 -285h190zM560 1046q0 -21 -11.5 -34.5t-43.5 -30.5q-19 -10 -24 -16.5t-5 -22.5h-62q0 24 10 39.5t37 31.5q18 11 23.5 16.5t5.5 14.5q0 14 -12 23.5t-31 9.5q-45 0 -45 -46h-67q0 94 111 94
q50 0 82 -22t32 -57zM560 787h-94l-98 70l-99 -70h-91l130 135h128z" />
    <glyph glyph-name="acircumflexhookabove" unicode="&#x1ea9;" 
d="M524 0h-152q-16 20 -16 68q-74 -77 -164 -77q-71 0 -117.5 40t-46.5 115q0 72 38.5 110t120.5 53l56 10q12 2 32 5t28.5 4.5t21 5.5t17.5 9.5t9 15t4 23.5q0 54 -81 54q-52 0 -73 -16t-26 -58h-135q13 187 231 187q221 0 221 -166v-300q0 -37 32 -66v-17zM355 231v24
q-19 -9 -59 -17l-48 -9q-45 -8 -62.5 -22.5t-17.5 -44.5q0 -58 76 -58q53 0 82 33t29 94zM463 857q0 -21 -11.5 -34.5t-43.5 -30.5q-19 -10 -24 -16.5t-5 -22.5h-62q0 24 10 39.5t37 31.5q18 11 23.5 16.5t5.5 14.5q0 14 -12 23.5t-31 9.5q-45 0 -45 -46h-67q0 94 111 94
q50 0 82 -22t32 -57zM463 598h-94l-98 70l-99 -70h-91l130 135h128z" />
    <glyph glyph-name="Acircumflextilde" unicode="&#x1eaa;" horiz-adv-x="722" 
d="M703 0h-154l-48 147h-273l-49 -147h-153l259 729h166zM460 272l-95 285l-95 -285h190zM547 1080q-6 -127 -95 -127q-24 0 -55 12l-71 26q-18 6 -30 6q-18 0 -27 -10.5t-13 -34.5h-63q3 58 28 91t66 33q20 0 56 -13l71 -25q14 -6 34 -6q32 0 36 48h63zM560 787h-94l-98 70
l-99 -70h-91l130 135h128z" />
    <glyph glyph-name="acircumflextilde" unicode="&#x1eab;" 
d="M524 0h-152q-16 20 -16 68q-74 -77 -164 -77q-71 0 -117.5 40t-46.5 115q0 72 38.5 110t120.5 53l56 10q12 2 32 5t28.5 4.5t21 5.5t17.5 9.5t9 15t4 23.5q0 54 -81 54q-52 0 -73 -16t-26 -58h-135q13 187 231 187q221 0 221 -166v-300q0 -37 32 -66v-17zM355 231v24
q-19 -9 -59 -17l-48 -9q-45 -8 -62.5 -22.5t-17.5 -44.5q0 -58 76 -58q53 0 82 33t29 94zM450 891q-6 -127 -95 -127q-23 0 -55 12l-71 26q-18 6 -30 6q-18 0 -27 -10.5t-13 -34.5h-63q3 58 28 91t66 33q20 0 56 -13l71 -25q14 -6 34 -6q31 0 36 48h63zM463 598h-94l-98 70
l-99 -70h-91l130 135h128z" />
    <glyph glyph-name="Acircumflexdotbelow" unicode="&#x1eac;" horiz-adv-x="722" 
d="M703 0h-154l-48 147h-273l-49 -147h-153l259 729h166zM460 272l-95 285l-95 -285h190zM559 787h-94l-98 70l-99 -70h-91l130 135h128zM431 -205h-140v140h140v-140z" />
    <glyph glyph-name="acircumflexdotbelow" unicode="&#x1ead;" 
d="M524 0h-152q-16 20 -16 68q-74 -77 -164 -77q-71 0 -117.5 40t-46.5 115q0 72 38.5 110t120.5 53l56 10q12 2 32 5t28.5 4.5t21 5.5t17.5 9.5t9 15t4 23.5q0 54 -81 54q-52 0 -73 -16t-26 -58h-135q13 187 231 187q221 0 221 -166v-300q0 -37 32 -66v-17zM355 231v24
q-19 -9 -59 -17l-48 -9q-45 -8 -62.5 -22.5t-17.5 -44.5q0 -58 76 -58q53 0 82 33t29 94zM440 598h-88l-82 77l-82 -77h-86l108 154h127zM341 -205h-140v140h140v-140z" />
    <glyph glyph-name="Abreveacute" unicode="&#x1eae;" horiz-adv-x="722" 
d="M703 0h-154l-48 147h-273l-49 -147h-153l259 729h166zM460 272l-95 285l-95 -285h190zM556 1080l-135 -135h-106l76 135h165zM549 915q-12 -122 -182 -122q-81 0 -129.5 30t-49.5 92h71q8 -40 110 -40q103 0 109 40h71z" />
    <glyph glyph-name="abreveacute" unicode="&#x1eaf;" 
d="M524 0h-152q-16 20 -16 68q-74 -77 -164 -77q-71 0 -117.5 40t-46.5 115q0 72 38.5 110t120.5 53l56 10q12 2 32 5t28.5 4.5t21 5.5t17.5 9.5t9 15t4 23.5q0 54 -81 54q-52 0 -73 -16t-26 -58h-135q13 187 231 187q221 0 221 -166v-300q0 -37 32 -66v-17zM355 231v24
q-19 -9 -59 -17l-48 -9q-45 -8 -62.5 -22.5t-17.5 -44.5q0 -58 76 -58q53 0 82 33t29 94zM459 891l-135 -135h-106l76 135h165zM452 726q-12 -122 -182 -122q-81 0 -129.5 30t-49.5 92h71q8 -40 110 -40q103 0 109 40h71z" />
    <glyph glyph-name="Abrevegrave" unicode="&#x1eb0;" horiz-adv-x="722" 
d="M703 0h-154l-48 147h-273l-49 -147h-153l259 729h166zM460 272l-95 285l-95 -285h190zM421 945h-106l-135 135h165zM549 915q-12 -122 -182 -122q-81 0 -129.5 30t-49.5 92h71q8 -40 110 -40q103 0 109 40h71z" />
    <glyph glyph-name="abrevegrave" unicode="&#x1eb1;" 
d="M524 0h-152q-16 20 -16 68q-74 -77 -164 -77q-71 0 -117.5 40t-46.5 115q0 72 38.5 110t120.5 53l56 10q12 2 32 5t28.5 4.5t21 5.5t17.5 9.5t9 15t4 23.5q0 54 -81 54q-52 0 -73 -16t-26 -58h-135q13 187 231 187q221 0 221 -166v-300q0 -37 32 -66v-17zM355 231v24
q-19 -9 -59 -17l-48 -9q-45 -8 -62.5 -22.5t-17.5 -44.5q0 -58 76 -58q53 0 82 33t29 94zM324 756h-106l-135 135h165zM452 726q-12 -122 -182 -122q-81 0 -129.5 30t-49.5 92h71q8 -40 110 -40q103 0 109 40h71z" />
    <glyph glyph-name="Abrevehookabove" unicode="&#x1eb2;" horiz-adv-x="722" 
d="M703 0h-154l-48 147h-273l-49 -147h-153l259 729h166zM460 272l-95 285l-95 -285h190zM481 1009q0 -21 -11.5 -34.5t-43.5 -30.5q-19 -10 -24 -16.5t-5 -22.5h-62q0 24 10 39.5t37 31.5q18 11 23.5 16.5t5.5 14.5q0 14 -12 23.5t-31 9.5q-45 0 -45 -46h-67q0 94 111 94
q50 0 82 -22t32 -57zM549 915q-12 -122 -182 -122q-81 0 -129.5 30t-49.5 92h71q8 -40 110 -40q103 0 109 40h71z" />
    <glyph glyph-name="abrevehookabove" unicode="&#x1eb3;" 
d="M524 0h-152q-16 20 -16 68q-74 -77 -164 -77q-71 0 -117.5 40t-46.5 115q0 72 38.5 110t120.5 53l56 10q12 2 32 5t28.5 4.5t21 5.5t17.5 9.5t9 15t4 23.5q0 54 -81 54q-52 0 -73 -16t-26 -58h-135q13 187 231 187q221 0 221 -166v-300q0 -37 32 -66v-17zM355 231v24
q-19 -9 -59 -17l-48 -9q-45 -8 -62.5 -22.5t-17.5 -44.5q0 -58 76 -58q53 0 82 33t29 94zM384 820q0 -21 -11.5 -34.5t-43.5 -30.5q-19 -10 -24 -16.5t-5 -22.5h-62q0 24 10 39.5t37 31.5q18 11 23.5 16.5t5.5 14.5q0 14 -12 23.5t-31 9.5q-45 0 -45 -46h-67q0 94 111 94
q50 0 82 -22t32 -57zM452 726q-12 -122 -182 -122q-81 0 -129.5 30t-49.5 92h71q8 -40 110 -40q103 0 109 40h71z" />
    <glyph glyph-name="Abrevetilde" unicode="&#x1eb4;" horiz-adv-x="722" 
d="M703 0h-154l-48 147h-273l-49 -147h-153l259 729h166zM460 272l-95 285l-95 -285h190zM547 1083q-6 -127 -95 -127q-24 0 -55 12l-71 26q-18 6 -30 6q-18 0 -27 -10.5t-13 -34.5h-63q3 58 28 91t66 33q20 0 56 -13l71 -25q14 -6 34 -6q32 0 36 48h63zM549 915
q-12 -122 -182 -122q-81 0 -129.5 30t-49.5 92h71q8 -40 110 -40q103 0 109 40h71z" />
    <glyph glyph-name="abrevetilde" unicode="&#x1eb5;" 
d="M524 0h-152q-16 20 -16 68q-74 -77 -164 -77q-71 0 -117.5 40t-46.5 115q0 72 38.5 110t120.5 53l56 10q12 2 32 5t28.5 4.5t21 5.5t17.5 9.5t9 15t4 23.5q0 54 -81 54q-52 0 -73 -16t-26 -58h-135q13 187 231 187q221 0 221 -166v-300q0 -37 32 -66v-17zM355 231v24
q-19 -9 -59 -17l-48 -9q-45 -8 -62.5 -22.5t-17.5 -44.5q0 -58 76 -58q53 0 82 33t29 94zM450 894q-6 -127 -95 -127q-23 0 -55 12l-71 26q-18 6 -30 6q-18 0 -27 -10.5t-13 -34.5h-63q3 58 28 91t66 33q20 0 56 -13l71 -25q14 -6 34 -6q31 0 36 48h63zM452 726
q-12 -122 -182 -122q-81 0 -129.5 30t-49.5 92h71q8 -40 110 -40q103 0 109 40h71z" />
    <glyph glyph-name="Abrevedotbelow" unicode="&#x1eb6;" horiz-adv-x="722" 
d="M703 0h-154l-48 147h-273l-49 -147h-153l259 729h166zM460 272l-95 285l-95 -285h190zM548 915q-12 -122 -182 -122q-81 0 -129.5 30t-49.5 92h71q8 -40 110 -40q103 0 109 40h71zM431 -205h-140v140h140v-140z" />
    <glyph glyph-name="abrevedotbelow" unicode="&#x1eb7;" 
d="M524 0h-152q-16 20 -16 68q-74 -77 -164 -77q-71 0 -117.5 40t-46.5 115q0 72 38.5 110t120.5 53l56 10q12 2 32 5t28.5 4.5t21 5.5t17.5 9.5t9 15t4 23.5q0 54 -81 54q-52 0 -73 -16t-26 -58h-135q13 187 231 187q221 0 221 -166v-300q0 -37 32 -66v-17zM355 231v24
q-19 -9 -59 -17l-48 -9q-45 -8 -62.5 -22.5t-17.5 -44.5q0 -58 76 -58q53 0 82 33t29 94zM432 751q0 -62 -50 -106.5t-114 -44.5t-114 44.5t-50 106.5h80q0 -31 24 -47.5t60 -16.5t60 16.5t24 47.5h80zM341 -205h-140v140h140v-140z" />
    <glyph glyph-name="Edotbelow" unicode="&#x1eb8;" horiz-adv-x="667" 
d="M624 0h-545v729h527v-125h-377v-165h349v-125h-349v-189h395v-125zM404 -205h-140v140h140v-140z" />
    <glyph glyph-name="edotbelow" unicode="&#x1eb9;" 
d="M525 250l-1 -17h-362q3 -75 31 -105t81 -30q90 0 107 54h138q-23 -78 -90 -119.5t-160 -41.5q-116 0 -181.5 71.5t-65.5 200.5q0 135 66.5 210.5t183.5 75.5q119 0 186 -79.5t67 -219.5zM379 326q-5 57 -34 86.5t-75 29.5q-92 0 -106 -116h215zM342 -205h-140v140h140
v-140z" />
    <glyph glyph-name="Ehookabove" unicode="&#x1eba;" horiz-adv-x="667" 
d="M624 0h-545v729h527v-125h-377v-165h349v-125h-349v-189h395v-125zM455 899q0 -23 -11.5 -38.5t-43.5 -34.5q-19 -11 -24 -18t-5 -25h-62q0 27 10 44t37 35q18 13 23.5 19t5.5 16q0 16 -12 26t-31 10q-45 0 -45 -51h-67q0 104 111 104q50 0 82 -24.5t32 -62.5z" />
    <glyph glyph-name="ehookabove" unicode="&#x1ebb;" 
d="M525 250l-1 -17h-362q3 -75 31 -105t81 -30q90 0 107 54h138q-23 -78 -90 -119.5t-160 -41.5q-116 0 -181.5 71.5t-65.5 200.5q0 135 66.5 210.5t183.5 75.5q119 0 186 -79.5t67 -219.5zM379 326q-5 57 -34 86.5t-75 29.5q-92 0 -106 -116h215zM384 710
q0 -23 -11.5 -38.5t-43.5 -34.5q-19 -11 -24 -18t-5 -25h-62q0 27 10 44t37 35q18 13 23.5 19t5.5 16q0 16 -12 26t-31 10q-45 0 -45 -51h-67q0 104 111 104q50 0 82 -24.5t32 -62.5z" />
    <glyph glyph-name="Etilde" unicode="&#x1ebc;" horiz-adv-x="667" 
d="M624 0h-545v729h527v-125h-377v-165h349v-125h-349v-189h395v-125zM522 918q-6 -127 -95 -127q-23 0 -55 12l-71 26q-18 6 -30 6q-18 0 -27 -10.5t-13 -34.5h-63q3 58 28 91t66 33q20 0 56 -13l71 -25q14 -6 34 -6q31 0 36 48h63z" />
    <glyph glyph-name="etilde" unicode="&#x1ebd;" 
d="M525 250l-1 -17h-362q3 -75 31 -105t81 -30q90 0 107 54h138q-23 -78 -90 -119.5t-160 -41.5q-116 0 -181.5 71.5t-65.5 200.5q0 135 66.5 210.5t183.5 75.5q119 0 186 -79.5t67 -219.5zM379 326q-5 57 -34 86.5t-75 29.5q-92 0 -106 -116h215zM450 739q-6 -127 -95 -127
q-23 0 -55 12l-71 26q-18 6 -30 6q-18 0 -27 -10.5t-13 -34.5h-63q3 58 28 91t66 33q20 0 56 -13l71 -25q14 -6 34 -6q31 0 36 48h63z" />
    <glyph glyph-name="Ecircumflexacute" unicode="&#x1ebe;" horiz-adv-x="667" 
d="M624 0h-545v729h527v-125h-377v-165h349v-125h-349v-189h395v-125zM531 1077l-135 -135h-106l76 135h165zM535 787h-94l-98 70l-99 -70h-91l130 135h128z" />
    <glyph glyph-name="ecircumflexacute" unicode="&#x1ebf;" 
d="M525 250l-1 -17h-362q3 -75 31 -105t81 -30q90 0 107 54h138q-23 -78 -90 -119.5t-160 -41.5q-116 0 -181.5 71.5t-65.5 200.5q0 135 66.5 210.5t183.5 75.5q119 0 186 -79.5t67 -219.5zM379 326q-5 57 -34 86.5t-75 29.5q-92 0 -106 -116h215zM460 888l-135 -135h-106
l76 135h165zM464 598h-94l-98 70l-99 -70h-91l130 135h128z" />
    <glyph glyph-name="Ecircumflexgrave" unicode="&#x1ec0;" horiz-adv-x="667" 
d="M624 0h-545v729h527v-125h-377v-165h349v-125h-349v-189h395v-125zM396 942h-106l-135 135h165zM535 787h-94l-98 70l-99 -70h-91l130 135h128z" />
    <glyph glyph-name="ecircumflexgrave" unicode="&#x1ec1;" 
d="M525 250l-1 -17h-362q3 -75 31 -105t81 -30q90 0 107 54h138q-23 -78 -90 -119.5t-160 -41.5q-116 0 -181.5 71.5t-65.5 200.5q0 135 66.5 210.5t183.5 75.5q119 0 186 -79.5t67 -219.5zM379 326q-5 57 -34 86.5t-75 29.5q-92 0 -106 -116h215zM325 753h-106l-135 135
h165zM464 598h-94l-98 70l-99 -70h-91l130 135h128z" />
    <glyph glyph-name="Ecircumflexhookabove" unicode="&#x1ec2;" horiz-adv-x="667" 
d="M624 0h-545v729h527v-125h-377v-165h349v-125h-349v-189h395v-125zM535 1046q0 -21 -11.5 -34.5t-43.5 -30.5q-19 -10 -24 -16.5t-5 -22.5h-62q0 24 10 39.5t37 31.5q18 11 23.5 16.5t5.5 14.5q0 14 -12 23.5t-31 9.5q-45 0 -45 -46h-67q0 94 111 94q50 0 82 -22t32 -57z
M535 787h-94l-98 70l-99 -70h-91l130 135h128z" />
    <glyph glyph-name="ecircumflexhookabove" unicode="&#x1ec3;" 
d="M525 250l-1 -17h-362q3 -75 31 -105t81 -30q90 0 107 54h138q-23 -78 -90 -119.5t-160 -41.5q-116 0 -181.5 71.5t-65.5 200.5q0 135 66.5 210.5t183.5 75.5q119 0 186 -79.5t67 -219.5zM379 326q-5 57 -34 86.5t-75 29.5q-92 0 -106 -116h215zM464 857
q0 -21 -11.5 -34.5t-43.5 -30.5q-19 -10 -24 -16.5t-5 -22.5h-62q0 24 10 39.5t37 31.5q18 11 23.5 16.5t5.5 14.5q0 14 -12 23.5t-31 9.5q-45 0 -45 -46h-67q0 94 111 94q50 0 82 -22t32 -57zM464 598h-94l-98 70l-99 -70h-91l130 135h128z" />
    <glyph glyph-name="Ecircumflextilde" unicode="&#x1ec4;" horiz-adv-x="667" 
d="M624 0h-545v729h527v-125h-377v-165h349v-125h-349v-189h395v-125zM522 1080q-6 -127 -95 -127q-23 0 -55 12l-71 26q-18 6 -30 6q-18 0 -27 -10.5t-13 -34.5h-63q3 58 28 91t66 33q20 0 56 -13l71 -25q14 -6 34 -6q31 0 36 48h63zM535 787h-94l-98 70l-99 -70h-91
l130 135h128z" />
    <glyph glyph-name="ecircumflextilde" unicode="&#x1ec5;" 
d="M525 250l-1 -17h-362q3 -75 31 -105t81 -30q90 0 107 54h138q-23 -78 -90 -119.5t-160 -41.5q-116 0 -181.5 71.5t-65.5 200.5q0 135 66.5 210.5t183.5 75.5q119 0 186 -79.5t67 -219.5zM379 326q-5 57 -34 86.5t-75 29.5q-92 0 -106 -116h215zM451 891q-6 -127 -95 -127
q-24 0 -55 12l-71 26q-18 6 -30 6q-18 0 -27 -10.5t-13 -34.5h-63q3 58 28 91t66 33q20 0 56 -13l71 -25q14 -6 34 -6q32 0 36 48h63zM464 598h-94l-98 70l-99 -70h-91l130 135h128z" />
    <glyph glyph-name="Ecircumflexdotbelow" unicode="&#x1ec6;" horiz-adv-x="667" 
d="M624 0h-545v729h527v-125h-377v-165h349v-125h-349v-189h395v-125zM534 787h-94l-98 70l-99 -70h-91l130 135h128zM404 -205h-140v140h140v-140z" />
    <glyph glyph-name="ecircumflexdotbelow" unicode="&#x1ec7;" 
d="M525 250l-1 -17h-362q3 -75 31 -105t81 -30q90 0 107 54h138q-23 -78 -90 -119.5t-160 -41.5q-116 0 -181.5 71.5t-65.5 200.5q0 135 66.5 210.5t183.5 75.5q119 0 186 -79.5t67 -219.5zM379 326q-5 57 -34 86.5t-75 29.5q-92 0 -106 -116h215zM441 598h-88l-82 77
l-82 -77h-86l108 154h127zM342 -205h-140v140h140v-140z" />
    <glyph glyph-name="Ihookabove" unicode="&#x1ec8;" horiz-adv-x="278" 
d="M213 0h-150v729h150v-729zM250 899q0 -23 -11.5 -38.5t-43.5 -34.5q-19 -11 -24 -18t-5 -25h-62q0 27 10 44t37 35q18 13 23.5 19t5.5 16q0 16 -12 26t-31 10q-45 0 -45 -51h-67q0 104 111 104q50 0 82 -24.5t32 -62.5z" />
    <glyph glyph-name="ihookabove" unicode="&#x1ec9;" horiz-adv-x="278" 
d="M207 0h-140v540h140v-540zM251 710q0 -23 -11.5 -38.5t-43.5 -34.5q-19 -11 -24 -18t-5 -25h-62q0 27 10 44t37 35q18 13 23.5 19t5.5 16q0 16 -12 26t-31 10q-45 0 -45 -51h-67q0 104 111 104q50 0 82 -24.5t32 -62.5z" />
    <glyph glyph-name="Idotbelow" unicode="&#x1eca;" horiz-adv-x="278" 
d="M213 0h-150v729h150v-729zM208 -205h-140v140h140v-140z" />
    <glyph glyph-name="idotbelow" unicode="&#x1ecb;" horiz-adv-x="278" 
d="M207 0h-140v540h140v-540zM209 605h-140v140h140v-140zM209 -205h-140v140h140v-140z" />
    <glyph glyph-name="Odotbelow" unicode="&#x1ecc;" horiz-adv-x="778" 
d="M742 360q0 -162 -97 -267t-254 -105q-159 0 -255 105.5t-96 271.5q0 161 96.5 268.5t253.5 107.5q158 0 255 -107t97 -274zM592 361q0 114 -54.5 183t-146.5 69q-90 0 -145.5 -68.5t-55.5 -179.5q0 -114 55 -181.5t146 -67.5q90 0 145.5 67t55.5 178zM460 -205h-140v140
h140v-140z" />
    <glyph glyph-name="odotbelow" unicode="&#x1ecd;" horiz-adv-x="611" 
d="M569 266q0 -129 -71.5 -202t-195.5 -73q-125 0 -196 73t-71 206q0 132 71 205.5t195 73.5q128 0 198 -73.5t70 -209.5zM429 268q0 79 -34.5 123.5t-92.5 44.5t-92.5 -44.5t-34.5 -121.5t34.5 -121.5t92.5 -44.5q57 0 92 44.5t35 119.5zM376 -205h-140v140h140v-140z" />
    <glyph glyph-name="Ohookabove" unicode="&#x1ece;" horiz-adv-x="778" 
d="M742 360q0 -162 -97 -267t-254 -105q-159 0 -255 105.5t-96 271.5q0 161 96.5 268.5t253.5 107.5q158 0 255 -107t97 -274zM592 361q0 114 -54.5 183t-146.5 69q-90 0 -145.5 -68.5t-55.5 -179.5q0 -114 55 -181.5t146 -67.5q90 0 145.5 67t55.5 178zM502 899
q0 -23 -11.5 -38.5t-43.5 -34.5q-19 -11 -24 -18t-5 -25h-62q0 27 10 44t37 35q18 13 23.5 19t5.5 16q0 16 -12 26t-31 10q-45 0 -45 -51h-67q0 104 111 104q50 0 82 -24.5t32 -62.5z" />
    <glyph glyph-name="ohookabove" unicode="&#x1ecf;" horiz-adv-x="611" 
d="M569 266q0 -129 -71.5 -202t-195.5 -73q-125 0 -196 73t-71 206q0 132 71 205.5t195 73.5q128 0 198 -73.5t70 -209.5zM429 268q0 79 -34.5 123.5t-92.5 44.5t-92.5 -44.5t-34.5 -121.5t34.5 -121.5t92.5 -44.5q57 0 92 44.5t35 119.5zM418 710q0 -23 -11.5 -38.5
t-43.5 -34.5q-19 -11 -24 -18t-5 -25h-62q0 27 10 44t37 35q18 13 23.5 19t5.5 16q0 16 -12 26t-31 10q-45 0 -45 -51h-67q0 104 111 104q50 0 82 -24.5t32 -62.5z" />
    <glyph glyph-name="Ocircumflexacute" unicode="&#x1ed0;" horiz-adv-x="778" 
d="M742 360q0 -162 -97 -267t-254 -105q-159 0 -255 105.5t-96 271.5q0 161 96.5 268.5t253.5 107.5q158 0 255 -107t97 -274zM592 361q0 114 -54.5 183t-146.5 69q-90 0 -145.5 -68.5t-55.5 -179.5q0 -114 55 -181.5t146 -67.5q90 0 145.5 67t55.5 178zM578 1077l-135 -135
h-106l76 135h165zM582 787h-94l-98 70l-99 -70h-91l130 135h128z" />
    <glyph glyph-name="ocircumflexacute" unicode="&#x1ed1;" horiz-adv-x="611" 
d="M569 266q0 -129 -71.5 -202t-195.5 -73q-125 0 -196 73t-71 206q0 132 71 205.5t195 73.5q128 0 198 -73.5t70 -209.5zM429 268q0 79 -34.5 123.5t-92.5 44.5t-92.5 -44.5t-34.5 -121.5t34.5 -121.5t92.5 -44.5q57 0 92 44.5t35 119.5zM493 888l-135 -135h-106l76 135
h165zM497 598h-94l-98 70l-99 -70h-91l130 135h128z" />
    <glyph glyph-name="Ocircumflexgrave" unicode="&#x1ed2;" horiz-adv-x="778" 
d="M742 360q0 -162 -97 -267t-254 -105q-159 0 -255 105.5t-96 271.5q0 161 96.5 268.5t253.5 107.5q158 0 255 -107t97 -274zM592 361q0 114 -54.5 183t-146.5 69q-90 0 -145.5 -68.5t-55.5 -179.5q0 -114 55 -181.5t146 -67.5q90 0 145.5 67t55.5 178zM443 942h-106
l-135 135h165zM582 787h-94l-98 70l-99 -70h-91l130 135h128z" />
    <glyph glyph-name="ocircumflexgrave" unicode="&#x1ed3;" horiz-adv-x="611" 
d="M569 266q0 -129 -71.5 -202t-195.5 -73q-125 0 -196 73t-71 206q0 132 71 205.5t195 73.5q128 0 198 -73.5t70 -209.5zM429 268q0 79 -34.5 123.5t-92.5 44.5t-92.5 -44.5t-34.5 -121.5t34.5 -121.5t92.5 -44.5q57 0 92 44.5t35 119.5zM358 753h-106l-135 135h165z
M497 598h-94l-98 70l-99 -70h-91l130 135h128z" />
    <glyph glyph-name="Ocircumflexhookabove" unicode="&#x1ed4;" horiz-adv-x="778" 
d="M742 360q0 -162 -97 -267t-254 -105q-159 0 -255 105.5t-96 271.5q0 161 96.5 268.5t253.5 107.5q158 0 255 -107t97 -274zM592 361q0 114 -54.5 183t-146.5 69q-90 0 -145.5 -68.5t-55.5 -179.5q0 -114 55 -181.5t146 -67.5q90 0 145.5 67t55.5 178zM582 1046
q0 -21 -11.5 -34.5t-43.5 -30.5q-19 -10 -24 -16.5t-5 -22.5h-62q0 24 10 39.5t37 31.5q18 11 23.5 16.5t5.5 14.5q0 14 -12 23.5t-31 9.5q-45 0 -45 -46h-67q0 94 111 94q50 0 82 -22t32 -57zM582 787h-94l-98 70l-99 -70h-91l130 135h128z" />
    <glyph glyph-name="ocircumflexhookabove" unicode="&#x1ed5;" horiz-adv-x="611" 
d="M569 266q0 -129 -71.5 -202t-195.5 -73q-125 0 -196 73t-71 206q0 132 71 205.5t195 73.5q128 0 198 -73.5t70 -209.5zM429 268q0 79 -34.5 123.5t-92.5 44.5t-92.5 -44.5t-34.5 -121.5t34.5 -121.5t92.5 -44.5q57 0 92 44.5t35 119.5zM497 857q0 -21 -11.5 -34.5
t-43.5 -30.5q-19 -10 -24 -16.5t-5 -22.5h-62q0 24 10 39.5t37 31.5q18 11 23.5 16.5t5.5 14.5q0 14 -12 23.5t-31 9.5q-45 0 -45 -46h-67q0 94 111 94q50 0 82 -22t32 -57zM497 598h-94l-98 70l-99 -70h-91l130 135h128z" />
    <glyph glyph-name="Ocircumflextilde" unicode="&#x1ed6;" horiz-adv-x="778" 
d="M742 360q0 -162 -97 -267t-254 -105q-159 0 -255 105.5t-96 271.5q0 161 96.5 268.5t253.5 107.5q158 0 255 -107t97 -274zM592 361q0 114 -54.5 183t-146.5 69q-90 0 -145.5 -68.5t-55.5 -179.5q0 -114 55 -181.5t146 -67.5q90 0 145.5 67t55.5 178zM569 1080
q-6 -127 -95 -127q-24 0 -55 12l-71 26q-18 6 -30 6q-18 0 -27 -10.5t-13 -34.5h-63q3 58 28 91t66 33q20 0 56 -13l71 -25q14 -6 34 -6q32 0 36 48h63zM582 787h-94l-98 70l-99 -70h-91l130 135h128z" />
    <glyph glyph-name="ocircumflextilde" unicode="&#x1ed7;" horiz-adv-x="611" 
d="M569 266q0 -129 -71.5 -202t-195.5 -73q-125 0 -196 73t-71 206q0 132 71 205.5t195 73.5q128 0 198 -73.5t70 -209.5zM429 268q0 79 -34.5 123.5t-92.5 44.5t-92.5 -44.5t-34.5 -121.5t34.5 -121.5t92.5 -44.5q57 0 92 44.5t35 119.5zM484 891q-6 -127 -95 -127
q-23 0 -55 12l-71 26q-18 6 -30 6q-18 0 -27 -10.5t-13 -34.5h-63q3 58 28 91t66 33q20 0 56 -13l71 -25q14 -6 34 -6q31 0 36 48h63zM497 598h-94l-98 70l-99 -70h-91l130 135h128z" />
    <glyph glyph-name="Ocircumflexdotbelow" unicode="&#x1ed8;" horiz-adv-x="778" 
d="M742 360q0 -162 -97 -267t-254 -105q-159 0 -255 105.5t-96 271.5q0 161 96.5 268.5t253.5 107.5q158 0 255 -107t97 -274zM592 361q0 114 -54.5 183t-146.5 69q-90 0 -145.5 -68.5t-55.5 -179.5q0 -114 55 -181.5t146 -67.5q90 0 145.5 67t55.5 178zM581 787h-94l-98 70
l-99 -70h-91l130 135h128zM460 -205h-140v140h140v-140z" />
    <glyph glyph-name="ocircumflexdotbelow" unicode="&#x1ed9;" horiz-adv-x="611" 
d="M569 266q0 -129 -71.5 -202t-195.5 -73q-125 0 -196 73t-71 206q0 132 71 205.5t195 73.5q128 0 198 -73.5t70 -209.5zM429 268q0 79 -34.5 123.5t-92.5 44.5t-92.5 -44.5t-34.5 -121.5t34.5 -121.5t92.5 -44.5q57 0 92 44.5t35 119.5zM475 598h-88l-82 77l-82 -77h-86
l108 154h127zM376 -205h-140v140h140v-140z" />
    <glyph glyph-name="Ohornacute" unicode="&#x1eda;" horiz-adv-x="812" 
d="M789 745q0 -126 -91 -190q44 -93 44 -194q0 -77 -27.5 -151.5t-74.5 -124.5q-87 -94 -249 -94t-249 94q-49 52 -75.5 125.5t-26.5 155.5q0 164 102 274q93 101 248 101q156 0 250 -101q16 -18 23 -28q56 47 56 117h-65v125h135v-109zM592 362q0 118 -54 184.5t-147 66.5
q-91 0 -146 -66.5t-55 -180.5t55 -180.5t146 -66.5t146 66t55 177zM579 921l-135 -135h-106l76 135h165z" />
    <glyph glyph-name="ohornacute" unicode="&#x1edb;" horiz-adv-x="680" 
d="M650 556q0 -128 -94 -192q13 -46 13 -98q0 -129 -71.5 -202t-195.5 -73q-125 0 -196 73t-71 206q0 132 71 205.5t195 73.5q160 0 229 -120q50 46 50 111h-65v125h135v-109zM429 268q0 79 -34.5 123.5t-92.5 44.5t-92.5 -44.5t-34.5 -121.5t34.5 -121.5t92.5 -44.5
q57 0 92 44.5t35 119.5zM478 752l-126 -154h-100l70 154h156z" />
    <glyph glyph-name="Ohorngrave" unicode="&#x1edc;" horiz-adv-x="812" 
d="M789 745q0 -126 -91 -190q44 -93 44 -194q0 -77 -27.5 -151.5t-74.5 -124.5q-87 -94 -249 -94t-249 94q-49 52 -75.5 125.5t-26.5 155.5q0 164 102 274q93 101 248 101q156 0 250 -101q16 -18 23 -28q56 47 56 117h-65v125h135v-109zM592 362q0 118 -54 184.5t-147 66.5
q-91 0 -146 -66.5t-55 -180.5t55 -180.5t146 -66.5t146 66t55 177zM444 786h-106l-135 135h165z" />
    <glyph glyph-name="ohorngrave" unicode="&#x1edd;" horiz-adv-x="680" 
d="M650 556q0 -128 -94 -192q13 -46 13 -98q0 -129 -71.5 -202t-195.5 -73q-125 0 -196 73t-71 206q0 132 71 205.5t195 73.5q160 0 229 -120q50 46 50 111h-65v125h135v-109zM429 268q0 79 -34.5 123.5t-92.5 44.5t-92.5 -44.5t-34.5 -121.5t34.5 -121.5t92.5 -44.5
q57 0 92 44.5t35 119.5zM352 598h-100l-126 154h156z" />
    <glyph glyph-name="Ohornhookabove" unicode="&#x1ede;" horiz-adv-x="812" 
d="M789 745q0 -126 -91 -190q44 -93 44 -194q0 -77 -27.5 -151.5t-74.5 -124.5q-87 -94 -249 -94t-249 94q-49 52 -75.5 125.5t-26.5 155.5q0 164 102 274q93 101 248 101q156 0 250 -101q16 -18 23 -28q56 47 56 117h-65v125h135v-109zM592 362q0 118 -54 184.5t-147 66.5
q-91 0 -146 -66.5t-55 -180.5t55 -180.5t146 -66.5t146 66t55 177zM503 899q0 -23 -11.5 -38.5t-43.5 -34.5q-19 -11 -24 -18t-5 -25h-62q0 27 10 44t37 35q18 13 23.5 19t5.5 16q0 16 -12 26t-31 10q-45 0 -45 -51h-67q0 104 111 104q50 0 82 -24.5t32 -62.5z" />
    <glyph glyph-name="ohornhookabove" unicode="&#x1edf;" horiz-adv-x="680" 
d="M650 556q0 -128 -94 -192q13 -46 13 -98q0 -129 -71.5 -202t-195.5 -73q-125 0 -196 73t-71 206q0 132 71 205.5t195 73.5q160 0 229 -120q50 46 50 111h-65v125h135v-109zM429 268q0 79 -34.5 123.5t-92.5 44.5t-92.5 -44.5t-34.5 -121.5t34.5 -121.5t92.5 -44.5
q57 0 92 44.5t35 119.5zM414 710q0 -23 -11.5 -38.5t-43.5 -34.5q-19 -11 -24 -18t-5 -25h-62q0 27 10 44t37 35q18 13 23.5 19t5.5 16q0 16 -12 26t-31 10q-45 0 -45 -51h-67q0 104 111 104q50 0 82 -24.5t32 -62.5z" />
    <glyph glyph-name="Ohorntilde" unicode="&#x1ee0;" horiz-adv-x="812" 
d="M789 745q0 -126 -91 -190q44 -93 44 -194q0 -77 -27.5 -151.5t-74.5 -124.5q-87 -94 -249 -94t-249 94q-49 52 -75.5 125.5t-26.5 155.5q0 164 102 274q93 101 248 101q156 0 250 -101q16 -18 23 -28q56 47 56 117h-65v125h135v-109zM592 362q0 118 -54 184.5t-147 66.5
q-91 0 -146 -66.5t-55 -180.5t55 -180.5t146 -66.5t146 66t55 177zM570 918q-6 -127 -95 -127q-23 0 -55 12l-71 26q-18 6 -30 6q-18 0 -27 -10.5t-13 -34.5h-63q3 58 28 91t66 33q20 0 56 -13l71 -25q14 -6 34 -6q31 0 36 48h63z" />
    </font>
</defs>
</svg>
