<?xml version="1.0" standalone="no"?>
<!DOCTYPE svg PUBLIC "-//W3C//DTD SVG 1.1//EN" "http://www.w3.org/Graphics/SVG/1.1/DTD/svg11.dtd" >
<svg>
<metadata>
Created by FontForge 20120731 at Mon Apr 25 13:21:26 2016
 By ,,,
Copyright (URW)++, copyright 1999 by (URW)++ Design &#38; Development; Cyrillic glyphs added by Valek Filippov, copyright 2001-2002; Vietnamese characters were added by Han The Thanh; copyright 2006, 2008 for TeX Gyre extensions by B. Jackowski and J.M. Nowacki (on behalf of TeX users groups). This work is released under the GUST Font License --  see http://tug.org/fonts/licenses/GUST-FONT-LICENSE.txt for details.
</metadata>
<defs>
<font id="TeXGyreHeros-Regular" horiz-adv-x="556" >
  <font-face 
    font-family="TeXGyreHeros"
    font-weight="400"
    font-stretch="normal"
    units-per-em="1000"
    panose-1="0 0 5 0 0 0 0 0 0 0"
    ascent="784"
    descent="-216"
    x-height="524"
    cap-height="729"
    bbox="-529 -284 1353 1148"
    underline-thickness="50"
    underline-position="-77"
    unicode-range="U+0020-FB04"
  />
<missing-glyph horiz-adv-x="280" 
 />
    <glyph glyph-name="I_J" unicode="IJ" horiz-adv-x="723" 
d="M161 0h-93v729h93v-729zM655 187q0 -95 -55.5 -150t-150.5 -55t-148 52t-53 141v59h93v-42q0 -64 28 -98t81 -34q56 0 84 37t28 124v508h93v-542z" />
    <glyph glyph-name="i_j" unicode="ij" horiz-adv-x="441" 
d="M151 0h-83v524h83v-524zM162 603h-104v104h104v-104zM373 -109q0 -109 -143 -109q-13 0 -28 3v71l20 -1q37 -2 52.5 14.5t15.5 54.5v600h83v-633zM384 603h-104v104h104v-104z" />
    <glyph glyph-name="f_k" unicode="fk" horiz-adv-x="788" 
d="M258 456h-87v-456h-83v456h-70v68h70v89q0 56 32.5 87.5t90.5 31.5q23 0 47 -5v-69q-19 1 -29 1q-58 0 -58 -53v-82h87v-68zM790 0h-103l-177 284l-81 -80v-204h-83v729h83v-427l222 222h107l-182 -181z" />
    <glyph glyph-name="f_f" unicode="ff" horiz-adv-x="534" 
d="M516 456h-87v-456h-83v456h-175v-456h-83v456h-70v68h70v89q0 56 32.5 87.5t90.5 31.5q23 0 47 -5v-69q-19 1 -29 1q-58 0 -58 -53v-82h175v89q0 56 32.5 87.5t90.5 31.5q23 0 47 -5v-69q-19 1 -29 1q-58 0 -58 -53v-82h87v-68z" />
    <glyph glyph-name="f_i" unicode="fi" horiz-adv-x="500" 
d="M258 456h-87v-456h-83v456h-70v68h70v89q0 56 32.5 87.5t90.5 31.5q23 0 47 -5v-69q-19 1 -29 1q-58 0 -58 -53v-82h87v-68zM429 0h-83v524h83v-524zM440 603h-104v104h104v-104z" />
    <glyph glyph-name="f_l" unicode="fl" horiz-adv-x="500" 
d="M258 456h-87v-456h-83v456h-70v68h70v89q0 56 32.5 87.5t90.5 31.5q23 0 47 -5v-69q-19 1 -29 1q-58 0 -58 -53v-82h87v-68zM429 0h-83v729h83v-729z" />
    <glyph glyph-name="f_f_i" unicode="ffi" horiz-adv-x="758" 
d="M516 456h-87v-456h-83v456h-175v-456h-83v456h-70v68h70v89q0 56 32.5 87.5t90.5 31.5q23 0 47 -5v-69q-19 1 -29 1q-58 0 -58 -53v-82h175v89q0 56 32.5 87.5t90.5 31.5q23 0 47 -5v-69q-19 1 -29 1q-58 0 -58 -53v-82h87v-68zM687 0h-83v524h83v-524zM698 603h-104v104
h104v-104z" />
    <glyph glyph-name="f_f_l" unicode="ffl" horiz-adv-x="758" 
d="M516 456h-87v-456h-83v456h-175v-456h-83v456h-70v68h70v89q0 56 32.5 87.5t90.5 31.5q23 0 47 -5v-69q-19 1 -29 1q-58 0 -58 -53v-82h175v89q0 56 32.5 87.5t90.5 31.5q23 0 47 -5v-69q-19 1 -29 1q-58 0 -58 -53v-82h87v-68zM687 0h-83v729h83v-729z" />
    <glyph glyph-name=".notdef" horiz-adv-x="280" 
 />
    <glyph glyph-name=".null" horiz-adv-x="0" 
 />
    <glyph glyph-name="nonmarkingreturn" horiz-adv-x="333" 
 />
    <glyph glyph-name="space" unicode=" " horiz-adv-x="278" 
 />
    <glyph glyph-name="exclam" unicode="!" horiz-adv-x="278" 
d="M181 391l-22 -223h-39l-22 223v338h83v-338zM181 0h-84v104h84v-104z" />
    <glyph glyph-name="quotedbl" unicode="&#x22;" horiz-adv-x="355" 
d="M145 598l-27 -134h-39l-27 134v111h93v-111zM305 598l-27 -134h-39l-27 134v111h93v-111z" />
    <glyph glyph-name="numbersign" unicode="#" 
d="M542 433h-106l-31 -174h105v-68h-117l-39 -211h-76l38 211h-124l-39 -211h-76l38 211h-101v68h114l31 174h-108v68h121l36 196h76l-36 -196h125l35 196h77l-36 -196h93v-68zM360 433h-124l-32 -174h125z" />
    <glyph glyph-name="dollar" unicode="$" 
d="M518 195q0 -96 -55.5 -153.5t-160.5 -64.5v-103h-59v103q-101 6 -156 61.5t-55 152.5q0 2 0.5 8t0.5 9h79q6 -53 10 -71t15 -34q33 -47 106 -57v272q-93 28 -126 52q-71 51 -71 146q0 85 50.5 136.5t146.5 63.5v54h59v-54q91 -7 142.5 -59.5t51.5 -137.5h-79
q-1 55 -33 90t-82 37v-249q101 -31 131 -48q85 -48 85 -154zM243 405v240q-56 -8 -86 -39t-30 -80q0 -90 116 -121zM436 183q0 49 -28.5 76t-105.5 50v-263q65 7 99.5 44.5t34.5 92.5z" />
    <glyph glyph-name="percent" unicode="%" horiz-adv-x="889" 
d="M370 512q0 -69 -50 -119t-120 -50t-120.5 50.5t-50.5 120.5t50 120.5t120 50.5q72 0 121.5 -50t49.5 -123zM301 513q0 43 -29.5 72.5t-72.5 29.5q-41 0 -71 -29.5t-30 -71.5q0 -41 30 -71t72 -30q41 0 71 29.5t30 70.5zM675 709l-395 -729h-66l395 729h66zM859 150
q0 -69 -50.5 -119t-119.5 -50q-71 0 -121 50.5t-50 120.5t50 120t120 50q72 0 121.5 -50t49.5 -122zM790 150q0 43 -29.5 72.5t-72.5 29.5q-41 0 -71 -29.5t-30 -70.5q0 -42 30 -71.5t72 -29.5q41 0 71 29.5t30 69.5z" />
    <glyph glyph-name="ampersand" unicode="&#x26;" horiz-adv-x="667" 
d="M637 0h-109l-62 78q-63 -61 -104.5 -81t-104.5 -20q-92 0 -148.5 54.5t-56.5 144.5q0 68 34.5 113.5t127.5 99.5q-47 59 -64 93.5t-17 69.5q0 66 50 111.5t121 45.5t117 -44t46 -113q0 -54 -30 -92t-108 -82l133 -163q31 56 31 119h80q0 -94 -58 -183zM388 554
q0 37 -24.5 61t-62.5 24q-39 0 -62.5 -23.5t-23.5 -62.5q0 -27 12.5 -48.5t57.5 -73.5q59 37 81 63t22 60zM418 137l-160 200q-68 -43 -95 -77.5t-27 -76.5q0 -53 38.5 -90.5t92.5 -37.5q73 0 151 82z" />
    <glyph glyph-name="quotesingle" unicode="'" horiz-adv-x="191" 
d="M142 598l-27 -134h-40l-27 134v111h94v-111z" />
    <glyph glyph-name="parenleft" unicode="(" horiz-adv-x="333" 
d="M291 -212h-55q-75 98 -119 225.5t-44 245.5t44 245t119 225h55q-137 -221 -137 -470q0 -248 137 -471z" />
    <glyph glyph-name="parenright" unicode=")" horiz-adv-x="333" 
d="M256 258q0 -118 -44 -245t-119 -225h-55q137 221 137 470q0 248 -137 471h55q75 -98 119 -225.5t44 -245.5z" />
    <glyph glyph-name="asterisk" unicode="*" horiz-adv-x="389" 
d="M343 596l-108 -30l70 -89l-51 -36l-62 93l-63 -93l-50 36l69 89l-108 30l19 59l101 -38v112h58v-112l106 38z" />
    <glyph glyph-name="plus" unicode="+" horiz-adv-x="584" 
d="M516 216h-190v-190h-68v190h-190v68h190v190h68v-190h190v-68z" />
    <glyph glyph-name="comma" unicode="," horiz-adv-x="278" 
d="M192 -16q0 -131 -105 -131v38q35 1 47.5 20t12.5 71v18h-60v104h105v-120z" />
    <glyph glyph-name="hyphen" unicode="-" horiz-adv-x="333" 
d="M284 240h-238v72h238v-72z" />
    <glyph glyph-name="period" unicode="." horiz-adv-x="278" 
d="M191 0h-104v104h104v-104z" />
    <glyph glyph-name="slash" unicode="/" horiz-adv-x="278" 
d="M284 729l-237 -749h-55l237 749h55z" />
    <glyph glyph-name="zero" unicode="0" 
d="M507 341q0 -174 -59.5 -265t-172.5 -91q-114 0 -173 91.5t-59 270.5t58.5 270.5t173.5 91.5q232 0 232 -368zM417 349q0 282 -142 282t-142 -285q0 -288 140 -288q74 0 109 70.5t35 220.5z" />
    <glyph glyph-name="one" unicode="1" 
d="M347 0h-88v505h-157v63q102 13 133 36t54 105h58v-709z" />
    <glyph glyph-name="two" unicode="2" 
d="M511 501q0 -134 -150 -214l-100 -54q-65 -38 -93 -70t-35 -76h373v-87h-472q6 117 47 180.5t152 126.5l92 52q96 55 96 140q0 57 -40 95t-100 38q-67 0 -102.5 -40.5t-40.5 -128.5h-88q7 246 234 246q100 0 163.5 -59t63.5 -149z" />
    <glyph glyph-name="three" unicode="3" 
d="M506 206q0 -101 -65.5 -161t-174.5 -60q-110 0 -168 56t-66 173h88q5 -77 41 -114t108 -37q69 0 108 37.5t39 104.5q0 60 -37.5 92.5t-109.5 32.5h-48v74q102 0 138 24t36 83q0 56 -33.5 88.5t-91.5 32.5q-68 0 -101 -37t-34 -115h-88q5 229 222 229q101 0 158.5 -52
t57.5 -143q0 -104 -99 -143q63 -22 91.5 -61t28.5 -104z" />
    <glyph glyph-name="four" unicode="4" 
d="M520 170h-105v-170h-88v170h-299v93l322 446h65v-460h105v-79zM327 249v310l-222 -310h222z" />
    <glyph glyph-name="five" unicode="5" 
d="M513 235q0 -112 -67.5 -181t-175.5 -69q-97 0 -155.5 47t-79.5 150h88q31 -119 145 -119q73 0 114 42t41 118q0 78 -41.5 122t-113.5 44q-41 0 -70 -14.5t-60 -51.5h-81l53 371h366v-87h-295l-28 -183q59 43 131 43q102 0 165.5 -63.5t63.5 -168.5z" />
    <glyph glyph-name="six" unicode="6" 
d="M513 220q0 -104 -65 -169.5t-167 -65.5q-238 0 -238 338q0 186 65.5 286t188.5 100q81 0 134.5 -49t66.5 -136h-88q-11 51 -42 79t-77 28q-76 0 -116.5 -69.5t-41.5 -199.5q58 79 163 79q96 0 156.5 -61t60.5 -160zM423 213q0 71 -37 110.5t-101 39.5q-66 0 -106.5 -39.5
t-40.5 -105.5q0 -68 41 -111.5t103 -43.5q61 0 101 42t40 108z" />
    <glyph glyph-name="seven" unicode="7" 
d="M520 620q-229 -272 -288 -620h-94q75 335 291 607h-383v87h474v-74z" />
    <glyph glyph-name="eight" unicode="8" 
d="M513 200q0 -96 -66.5 -155.5t-171.5 -59.5q-106 0 -172 59.5t-66 156.5q0 114 121 172q-54 34 -75 66t-21 81q0 83 59.5 136t153.5 53t153.5 -53t59.5 -136q0 -50 -21 -82t-76 -65q122 -58 122 -173zM398 518q0 52 -33.5 82.5t-89.5 30.5t-89.5 -30.5t-33.5 -81.5
q0 -50 33.5 -80.5t89.5 -30.5q55 0 89 30t34 80zM423 199q0 62 -40.5 98.5t-107.5 36.5t-107.5 -36.5t-40.5 -98.5t40.5 -99t105.5 -37q68 0 109 36.5t41 99.5z" />
    <glyph glyph-name="nine" unicode="9" 
d="M509 371q0 -185 -65.5 -285.5t-189.5 -100.5q-81 0 -134.5 49t-66.5 136h88q11 -51 42 -79t77 -28q76 0 116.5 69.5t41.5 199.5q-66 -79 -162 -79t-157 61t-61 160q0 104 65 169.5t167 65.5q239 0 239 -338zM413 476q0 68 -41 112t-103 44q-61 0 -101 -42t-40 -109
q0 -71 37 -110.5t101 -39.5q65 0 106 40t41 105z" />
    <glyph glyph-name="colon" unicode=":" horiz-adv-x="278" 
d="M191 0h-104v104h104v-104zM191 420h-104v104h104v-104z" />
    <glyph glyph-name="semicolon" unicode=";" horiz-adv-x="278" 
d="M192 420h-104v104h104v-104zM192 -16q0 -131 -105 -131v38q35 1 47.5 20t12.5 71v18h-60v104h105v-120z" />
    <glyph glyph-name="less" unicode="&#x3c;" horiz-adv-x="584" 
d="M448 -69l-334 293v52l334 293v-90l-260 -229l260 -229v-90z" />
    <glyph glyph-name="equal" unicode="=" horiz-adv-x="584" 
d="M516 307h-448v68h448v-68zM516 125h-448v68h448v-68z" />
    <glyph glyph-name="greater" unicode="&#x3e;" horiz-adv-x="584" 
d="M448 224l-334 -293v90l260 229l-260 229v90l334 -293v-52z" />
    <glyph glyph-name="question" unicode="?" 
d="M502 549q0 -50 -22 -89t-78 -90q-51 -47 -65 -69.5t-14 -54.5v-47h-90v55q0 50 28 87q13 17 22.5 26.5t53.5 49.5q75 67 75 132q0 51 -35 82.5t-93 31.5q-67 0 -98 -37.5t-31 -118.5h-85q0 115 55.5 174.5t163.5 59.5q97 0 155 -52t58 -140zM323 0h-90v104h90v-104z" />
    <glyph glyph-name="at" unicode="@" horiz-adv-x="1015" 
d="M951 369q0 -75 -34.5 -146.5t-98.5 -118.5t-139 -47q-96 0 -110 77q-66 -72 -142 -72q-70 0 -116.5 52.5t-46.5 130.5q0 109 78 193t179 84q84 0 122 -87l22 66h83l-90 -280q-13 -38 -12 -50q0 -18 15 -31t35 -13q64 0 116 71t52 159q0 125 -104.5 216t-247.5 91
q-158 0 -275.5 -117t-117.5 -274q0 -143 108 -240.5t267 -97.5q79 0 193 32l28 -67q-112 -42 -226 -42q-124 0 -229 53.5t-165.5 145.5t-60.5 201q0 128 66.5 239.5t180 177.5t244.5 66q175 0 300.5 -110t125.5 -262zM609 362v5q0 39 -27 65t-67 26q-63 0 -112 -65t-49 -149
q0 -49 29 -83.5t70 -34.5q58 0 105 72t51 164z" />
    <glyph glyph-name="A" unicode="A" horiz-adv-x="667" 
d="M653 0h-104l-75 219h-281l-77 -219h-99l260 729h120zM448 297l-112 332l-120 -332h232z" />
    <glyph glyph-name="B" unicode="B" horiz-adv-x="667" 
d="M623 208q0 -91 -59 -149.5t-156 -58.5h-329v729h296q101 0 158.5 -51.5t57.5 -133.5q0 -112 -101 -159q70 -27 101.5 -69t31.5 -108zM498 531q0 116 -146 116h-180v-232h180q146 0 146 116zM530 207q0 56 -33.5 91t-97.5 35h-227v-251h227q63 0 97 35t34 90z" />
    <glyph glyph-name="C" unicode="C" horiz-adv-x="722" 
d="M677 266q-33 -284 -300 -284q-156 0 -242.5 104.5t-86.5 269.5q0 168 87 279.5t246 111.5q237 0 281 -244h-95q-17 84 -64.5 123t-132.5 39q-105 0 -167 -83.5t-62 -224.5q0 -136 64 -214.5t173 -78.5q91 0 138.5 48.5t64.5 153.5h96z" />
    <glyph glyph-name="D" unicode="D" horiz-adv-x="722" 
d="M667 365q0 -170 -79.5 -267.5t-217.5 -97.5h-281v729h281q139 0 218 -97t79 -267zM574 364q0 139 -56 211t-164 72h-172v-565h172q108 0 164 72t56 210z" />
    <glyph glyph-name="E" unicode="E" horiz-adv-x="667" 
d="M613 0h-523v729h505v-82h-412v-233h397v-82h-397v-250h430v-82z" />
    <glyph glyph-name="F" unicode="F" horiz-adv-x="611" 
d="M579 647h-396v-233h348v-82h-348v-332h-93v729h489v-82z" />
    <glyph glyph-name="G" unicode="G" horiz-adv-x="778" 
d="M709 0h-59l-23 96q-102 -114 -249 -114q-148 0 -241 103.5t-93 271.5q0 169 93.5 279.5t256.5 110.5q125 0 205 -63.5t100 -175.5h-95q-15 71 -72 114t-139 43q-115 0 -185.5 -84t-70.5 -219t69.5 -216.5t191.5 -81.5q100 0 164.5 61t64.5 158v20h-222v82h304v-385z" />
    <glyph glyph-name="H" unicode="H" horiz-adv-x="722" 
d="M644 0h-93v332h-375v-332h-93v729h93v-315h375v315h93v-729z" />
    <glyph glyph-name="I" unicode="I" horiz-adv-x="278" 
d="M193 0h-93v729h93v-729z" />
    <glyph glyph-name="J" unicode="J" horiz-adv-x="500" 
d="M426 187q0 -95 -55.5 -150t-150.5 -55t-148 52t-53 141v59h93v-42q0 -64 28 -98t81 -34q56 0 84 37t28 124v508h93v-542z" />
    <glyph glyph-name="K" unicode="K" horiz-adv-x="667" 
d="M658 0h-110l-257 374l-119 -119v-255h-93v729h93v-369l363 369h120l-297 -297z" />
    <glyph glyph-name="L" unicode="L" 
d="M533 0h-453v729h93v-647h360v-82z" />
    <glyph glyph-name="M" unicode="M" horiz-adv-x="833" 
d="M761 0h-88v611l-205 -611h-98l-207 611v-611h-88v729h129l216 -635l212 635h129v-729z" />
    <glyph glyph-name="N" unicode="N" horiz-adv-x="722" 
d="M646 0h-105l-377 591v-591h-88v729h101l381 -596v596h88v-729z" />
    <glyph glyph-name="O" unicode="O" horiz-adv-x="778" 
d="M742 353q0 -163 -96.5 -267t-255.5 -104q-158 0 -255 103.5t-97 273.5q0 172 97.5 280t253.5 108q160 0 256.5 -108.5t96.5 -285.5zM649 355q0 139 -71 224.5t-189 85.5q-115 0 -186.5 -85.5t-71.5 -220.5q0 -134 71 -214.5t188 -80.5q116 0 187.5 80t71.5 211z" />
    <glyph glyph-name="P" unicode="P" horiz-adv-x="667" 
d="M617 515q0 -91 -57 -148.5t-147 -57.5h-229v-309h-93v729h301q108 0 166.5 -55.5t58.5 -158.5zM520 519q0 60 -37.5 94t-104.5 34h-194v-256h194q67 0 104.5 34t37.5 94z" />
    <glyph glyph-name="Q" unicode="Q" horiz-adv-x="778" 
d="M742 361q0 -167 -103 -280l94 -77l-47 -58l-105 87q-86 -51 -191 -51q-158 0 -255 103.5t-97 273.5q0 172 97.5 280t254.5 108t254.5 -108t97.5 -278zM649 360q0 135 -71.5 220t-187.5 85t-187.5 -85t-71.5 -221q0 -135 70.5 -215t187.5 -80q60 0 120 28l-74 62l46 56
l89 -73q79 89 79 223z" />
    <glyph glyph-name="R" unicode="R" horiz-adv-x="722" 
d="M679 0h-113q-22 52 -21 119l1 65q1 67 -28.5 98.5t-91.5 31.5h-240v-314h-93v729h336q107 0 164.5 -50.5t57.5 -144.5q0 -62 -27 -103t-88 -71q59 -25 78 -62.5t21 -127.5q1 -73 9.5 -101t34.5 -46v-23zM554 521q0 63 -33.5 94.5t-109.5 31.5h-225v-251h225
q74 0 108.5 30t34.5 95z" />
    <glyph glyph-name="S" unicode="S" horiz-adv-x="667" 
d="M621 200q0 -100 -74.5 -159t-210.5 -59q-133 0 -210.5 65t-77.5 190h88q0 -80 52.5 -126.5t153.5 -46.5q186 0 186 127q0 83 -134 118l-181 48q-143 37 -143 170q0 100 70 160t189 60q126 0 196.5 -59.5t70.5 -166.5h-88q0 71 -47.5 109.5t-134.5 38.5q-73 0 -118 -36.5
t-45 -92.5q0 -42 27 -66.5t93 -41.5l183 -49q74 -20 114.5 -68t40.5 -115z" />
    <glyph glyph-name="T" unicode="T" horiz-adv-x="611" 
d="M593 647h-239v-647h-93v647h-240v82h572v-82z" />
    <glyph glyph-name="U" unicode="U" horiz-adv-x="722" 
d="M645 222q0 -110 -76.5 -175t-204.5 -65q-130 0 -204.5 64.5t-74.5 175.5v507h93v-507q0 -77 50.5 -117.5t135.5 -40.5q88 0 138 42t50 116v507h93v-507z" />
    <glyph glyph-name="V" unicode="V" horiz-adv-x="667" 
d="M645 729l-253 -729h-100l-262 729h100l214 -617l202 617h99z" />
    <glyph glyph-name="W" unicode="W" horiz-adv-x="944" 
d="M929 729l-185 -729h-102l-168 599l-163 -599h-102l-187 729h104l137 -592l162 592h100l166 -592l134 592h104z" />
    <glyph glyph-name="X" unicode="X" horiz-adv-x="667" 
d="M649 0h-115l-199 304l-200 -304h-113l258 374l-242 355h113l187 -286l188 286h111l-246 -355z" />
    <glyph glyph-name="Y" unicode="Y" horiz-adv-x="667" 
d="M661 729l-274 -443v-286h-93v286l-281 443h115l214 -355l208 355h111z" />
    <glyph glyph-name="Z" unicode="Z" horiz-adv-x="611" 
d="M583 0h-555v82l438 565h-410v82h525v-84l-436 -563h438v-82z" />
    <glyph glyph-name="bracketleft" unicode="[" horiz-adv-x="278" 
d="M250 -212h-186v941h186v-72h-103v-797h103v-72z" />
    <glyph glyph-name="backslash" unicode="\" horiz-adv-x="278" 
d="M284 -20h-55l-237 749h55z" />
    <glyph glyph-name="bracketright" unicode="]" horiz-adv-x="278" 
d="M209 -212h-186v72h103v797h-103v72h186v-941z" />
    <glyph glyph-name="asciicircum" unicode="^" horiz-adv-x="469" 
d="M425 329h-69l-122 300l-121 -300h-69l153 380h73z" />
    <glyph glyph-name="underscore" unicode="_" 
d="M578 -177h-600v50h600v-50z" />
    <glyph glyph-name="grave" unicode="`" horiz-adv-x="333" 
d="M196 581h-60l-149 148h113z" />
    <glyph glyph-name="a" unicode="a" 
d="M535 2q-35 -9 -57 -9q-31 0 -55 19.5t-31 49.5q-72 -77 -178 -77q-80 0 -126 40t-46 111q0 98 92 136q25 10 53 15.5t115 16.5q49 6 68 19t19 39v22q0 38 -30.5 58t-86.5 20q-58 0 -88 -22.5t-35 -70.5h-84q7 170 210 170q97 0 147 -36.5t50 -106.5v-292q0 -41 45 -41
q9 0 18 2v-63zM389 181v78q-33 -15 -134 -29q-68 -10 -97 -30.5t-29 -61.5q0 -80 103 -80q63 0 110 34.5t47 88.5z" />
    <glyph glyph-name="b" unicode="b" 
d="M523 268q0 -128 -62.5 -205.5t-165.5 -77.5q-107 0 -166 90v-75h-75v729h83v-276q57 86 162 86q104 0 164 -72t60 -199zM436 263q0 88 -42 143t-111 55q-66 3 -106 -52t-40 -147q0 -89 40 -144t106 -55q68 0 110.5 55.5t42.5 144.5z" />
    <glyph glyph-name="c" unicode="c" horiz-adv-x="500" 
d="M477 180q-8 -91 -64.5 -143t-149.5 -52q-107 0 -169.5 73t-62.5 199q0 130 63.5 206t169.5 76q90 0 145 -48.5t62 -142.5h-84q-8 55 -40 84.5t-84 29.5q-69 0 -107 -53.5t-38 -151.5q0 -93 39 -144t108 -51q54 0 86 28t42 90h84z" />
    <glyph glyph-name="d" unicode="d" 
d="M495 0h-74v77q-34 -49 -73.5 -70.5t-93.5 -21.5q-106 0 -167 75t-61 207q0 125 61.5 198.5t163.5 73.5q108 0 161 -81v271h83v-729zM412 260q0 91 -40 146t-107 55q-69 0 -110.5 -54t-41.5 -145t42 -145t111 -54q66 0 106 53.5t40 143.5z" />
    <glyph glyph-name="e" unicode="e" 
d="M513 238h-386q1 -87 43.5 -131.5t110.5 -44.5q105 0 137 97h84q-16 -80 -75.5 -127t-148.5 -47q-111 0 -174.5 72.5t-63.5 201.5t65 204.5t175 75.5q74 0 130.5 -37t81.5 -101q21 -55 21 -163zM424 312q0 62 -42 106t-103 44q-63 0 -104 -43t-46 -113h294z" />
    <glyph glyph-name="f" unicode="f" horiz-adv-x="278" 
d="M258 456h-87v-456h-83v456h-70v68h70v89q0 56 32.5 87.5t90.5 31.5q23 0 47 -5v-69q-19 1 -29 1q-58 0 -58 -53v-82h87v-68z" />
    <glyph glyph-name="g" unicode="g" 
d="M489 86q0 -170 -54 -237t-180 -67q-92 0 -147 42t-62 116h85q14 -88 127 -88q76 0 115 45.5t39 146.5v35q-42 -50 -80 -72t-87 -22q-94 0 -155 75t-61 197q0 127 61.5 204.5t161.5 77.5q98 0 160 -91v76h77v-438zM404 259q0 95 -38 149t-105 54t-106 -53t-39 -147
q0 -95 38.5 -147.5t107.5 -52.5q66 0 104 52t38 145z" />
    <glyph glyph-name="h" unicode="h" 
d="M486 0h-83v363q0 50 -30.5 76.5t-77.5 26.5q-64 0 -103 -48.5t-39 -128.5v-289h-83v729h83v-277q37 48 74.5 67.5t93.5 19.5q76 0 120.5 -38.5t44.5 -104.5v-396z" />
    <glyph glyph-name="i" unicode="i" horiz-adv-x="222" 
d="M153 0h-83v524h83v-524zM164 603h-104v104h104v-104z" />
    <glyph glyph-name="j" unicode="j" horiz-adv-x="222" 
d="M153 -109q0 -109 -143 -109q-13 0 -28 3v71l20 -1q37 -2 52.5 14.5t15.5 54.5v600h83v-633zM164 603h-104v104h104v-104z" />
    <glyph glyph-name="k" unicode="k" horiz-adv-x="500" 
d="M502 0h-103l-177 284l-81 -80v-204h-83v729h83v-427l222 222h107l-182 -181z" />
    <glyph glyph-name="l" unicode="l" horiz-adv-x="222" 
d="M151 0h-83v729h83v-729z" />
    <glyph glyph-name="m" unicode="m" horiz-adv-x="833" 
d="M760 0h-83v361q0 50 -25 77.5t-71 27.5q-51 0 -87.5 -40t-36.5 -97v-329h-83v361q0 50 -25.5 77.5t-71.5 27.5q-51 0 -87 -40t-36 -97v-329h-83v524h76v-74q34 47 71.5 68t89.5 21q97 0 141 -80q37 44 73 62t88 18q73 0 111.5 -37.5t38.5 -108.5v-393z" />
    <glyph glyph-name="n" unicode="n" 
d="M487 0h-83v363q0 47 -29 75t-79 28q-64 0 -103.5 -48.5t-39.5 -128.5v-289h-83v524h77v-88q35 55 75.5 79t98.5 24q76 0 121 -39t45 -104v-396z" />
    <glyph glyph-name="o" unicode="o" 
d="M510 258q0 -129 -63 -201t-174 -72q-112 0 -174.5 72.5t-62.5 204.5q0 131 62.5 204t173.5 73q114 0 176 -73t62 -208zM423 259q0 97 -39.5 150t-110.5 53q-70 0 -110 -53t-40 -147q0 -95 40 -147.5t110 -52.5q69 0 109.5 52.5t40.5 144.5z" />
    <glyph glyph-name="p" unicode="p" 
d="M523 257q0 -125 -61 -198.5t-163 -73.5q-97 0 -161 78v-281h-83v742h76v-79q59 94 167 94q105 0 165 -75t60 -207zM436 259q0 93 -41.5 147.5t-110.5 54.5q-66 0 -106 -55.5t-40 -147.5q0 -91 39.5 -143t106.5 -52q68 0 110 53.5t42 142.5z" />
    <glyph glyph-name="q" unicode="q" 
d="M495 -218h-83v286q-57 -83 -162 -83q-104 0 -164 72t-60 199q0 130 62 206.5t166 76.5q107 0 167 -85v70h74v-742zM412 259q0 92 -39.5 147t-106.5 55q-69 0 -111 -54t-42 -145t42 -145t111 -54q66 0 106 53t40 143z" />
    <glyph glyph-name="r" unicode="r" horiz-adv-x="333" 
d="M321 451q-94 -1 -131 -44t-37 -135v-272h-83v524h76v-95q36 59 69.5 84.5t73.5 25.5q11 0 32 -3v-85z" />
    <glyph glyph-name="s" unicode="s" horiz-adv-x="500" 
d="M459 147q0 -75 -58.5 -118.5t-157.5 -43.5q-103 0 -154.5 42.5t-54.5 132.5h88q8 -57 38 -77.5t90 -20.5q55 0 88.5 21t33.5 57q0 28 -18.5 43t-62.5 26l-78 19q-93 22 -129.5 55.5t-36.5 95.5q0 73 55 116.5t146 43.5t140 -42t50 -119h-88q-3 84 -105 84
q-51 0 -81 -21.5t-30 -57.5q0 -28 23 -45.5t74 -29.5l80 -19q79 -19 113.5 -51.5t34.5 -90.5z" />
    <glyph glyph-name="t" unicode="t" horiz-adv-x="278" 
d="M254 0q-39 -7 -68 -7q-49 0 -75 21.5t-26 61.5v380h-71v68h71v144h83v-144h86v-68h-86v-343q0 -28 9.5 -37.5t36.5 -9.5q25 0 40 4v-70z" />
    <glyph glyph-name="u" unicode="u" 
d="M482 0h-75v81q-37 -52 -77 -74t-98 -22q-76 0 -121.5 39t-45.5 104v396h83v-363q0 -47 29 -75t79 -28q65 0 104 48.5t39 128.5v289h83v-524z" />
    <glyph glyph-name="v" unicode="v" horiz-adv-x="500" 
d="M486 524l-201 -524h-91l-184 524h94l140 -425l148 425h94z" />
    <glyph glyph-name="w" unicode="w" horiz-adv-x="722" 
d="M708 524l-154 -524h-95l-106 411l-101 -411h-94l-152 524h92l107 -408l100 408h102l103 -408l104 408h94z" />
    <glyph glyph-name="x" unicode="x" horiz-adv-x="500" 
d="M473 0h-97l-131 201l-133 -201h-95l185 267l-175 257h95l126 -190l126 190h94l-176 -253z" />
    <glyph glyph-name="y" unicode="y" horiz-adv-x="500" 
d="M478 524l-233 -634q-40 -108 -135 -108q-31 0 -56 13v75q27 -6 44 -6q27 0 41.5 11.5t25.5 39.5l32 83l-177 526h89l134 -408l145 408h90z" />
    <glyph glyph-name="z" unicode="z" horiz-adv-x="500" 
d="M457 0h-426v75l313 376h-292v73h391v-74l-311 -377h325v-73z" />
    <glyph glyph-name="braceleft" unicode="{" horiz-adv-x="334" 
d="M276 -212h-46q-52 0 -80.5 34.5t-28.5 96.5v167q0 69 -17 99t-61 39v69q44 9 61 38.5t17 99.5v167q0 62 28.5 96.5t80.5 34.5h46v-65h-15q-37 0 -50 -14t-13 -53v-181q0 -69 -18 -104t-64 -53q82 -38 82 -158v-181q0 -39 13 -53t50 -14h15v-65z" />
    <glyph glyph-name="bar" unicode="|" horiz-adv-x="260" 
d="M164 -212h-68v941h68v-941z" />
    <glyph glyph-name="braceright" unicode="}" horiz-adv-x="334" 
d="M262 224q-43 -9 -59.5 -39t-16.5 -99v-167q0 -62 -29 -96.5t-81 -34.5h-47v65h16q37 0 50.5 14t13.5 53v181q0 120 82 157q-82 38 -82 158v181q0 39 -13.5 53t-50.5 14h-16v65h47q52 0 81 -34.5t29 -96.5v-167q0 -69 16.5 -99t59.5 -39v-69z" />
    <glyph glyph-name="asciitilde" unicode="~" horiz-adv-x="584" 
d="M508 395q0 -58 -28.5 -92.5t-76.5 -34.5q-40 0 -81 26l-98 63q-23 14 -43 14q-46 0 -53 -78h-53q4 70 31.5 107.5t76.5 37.5q27 0 54 -16l117 -69q28 -17 50 -17q28 0 39.5 17.5t11.5 57.5h53v-16z" />
    <glyph glyph-name="uni00A0" unicode="&#xa0;" horiz-adv-x="278" 
 />
    <glyph glyph-name="exclamdown" unicode="&#xa1;" horiz-adv-x="278" 
d="M180 -205h-83v338l22 223h39l22 -223v-338zM181 420h-84v104h84v-104z" />
    <glyph glyph-name="cent" unicode="&#xa2;" 
d="M510 180q-5 -90 -58 -144.5t-140 -58.5v-97h-42v98q-101 9 -159.5 82.5t-58.5 192.5q0 122 58.5 198t159.5 87v90h42v-89q88 -6 137.5 -55.5t54.5 -135.5h-84q-5 50 -33.5 80t-74.5 34v-409q96 11 114 127h84zM270 55v406q-131 -24 -131 -208q0 -85 34.5 -136.5
t96.5 -61.5z" />
    <glyph glyph-name="sterling" unicode="&#xa3;" 
d="M535 33q-57 -56 -131 -56q-46 0 -146 35q-33 11 -66 11q-53 0 -109 -37l-48 66q69 59 97 102t28 89q0 38 -24 78h-110v55h81q-34 57 -43.5 81.5t-9.5 57.5q0 91 68.5 152.5t169.5 61.5q103 0 160.5 -58t59.5 -174h-88q-4 154 -136 154q-64 0 -102.5 -35t-38.5 -93
q0 -18 3.5 -31.5t7 -22t19.5 -38.5t29 -55h160v-55h-136q15 -43 15 -71q0 -39 -25.5 -80t-92.5 -109q59 39 122 39q21 0 86.5 -15.5t74.5 -15.5q40 0 83 30z" />
    <glyph glyph-name="currency" unicode="&#xa4;" 
d="M528 555l-55 -54q50 -57 50 -150q0 -89 -50 -151l54 -56l-45 -45l-55 58q-59 -55 -149 -55t-149 55l-55 -58l-45 45l54 56q-50 62 -50 151q0 93 50 150l-55 54l48 48l57 -56q59 51 145 51t145 -51l57 56zM450 351q0 71 -50.5 124t-121.5 53t-121.5 -53t-50.5 -124
q0 -73 50.5 -126t121.5 -53t121.5 53t50.5 126z" />
    <glyph glyph-name="yen" unicode="&#xa5;" 
d="M545 709l-201 -355h151v-51h-170v-77h170v-51h-170v-175h-88v175h-172v51h172v77h-172v51h151l-205 355h85l185 -322l179 322h85z" />
    <glyph glyph-name="brokenbar" unicode="&#xa6;" horiz-adv-x="260" 
d="M164 353h-68v376h68v-376zM164 -212h-68v376h68v-376z" />
    <glyph glyph-name="section" unicode="&#xa7;" 
d="M506 229q0 -115 -109 -156q30 -34 41.5 -60t11.5 -58q0 -72 -53.5 -120t-133.5 -48q-89 0 -137.5 52t-48.5 147h85q0 -63 28 -92.5t74 -29.5q43 0 69.5 24t26.5 62q0 50 -55 88l-170 117q-49 34 -70.5 71t-21.5 86q0 50 25 85.5t80 64.5q-44 51 -44 102q0 69 53.5 117
t131.5 48t126.5 -49t48.5 -128v-28h-84v26q0 47 -26.5 74.5t-70.5 27.5q-38 0 -63.5 -24t-25.5 -61q0 -22 13 -39.5t44 -37.5l146 -94q61 -39 85 -76t24 -91zM427 208q0 61 -73 112l-161 109q-39 -26 -55 -48.5t-16 -52.5t13 -50t53 -49l166 -123q73 39 73 102z" />
    <glyph glyph-name="dieresis" unicode="&#xa8;" horiz-adv-x="333" 
d="M131 604h-91v102h91v-102zM293 604h-91v102h91v-102z" />
    <glyph glyph-name="copyright" unicode="&#xa9;" horiz-adv-x="737" 
d="M718 334q0 -144 -102.5 -246t-246.5 -102t-246 102t-102 246t102 246.5t246 102.5t246.5 -102.5t102.5 -246.5zM675 334q0 127 -89.5 216.5t-216.5 89.5t-216 -89.5t-89 -216.5t89 -216t216 -89t216.5 89t89.5 216zM559 285q-19 -160 -181 -160q-94 0 -146 57t-52 147
q0 92 52 153t148 61q146 0 170 -139h-64q-17 87 -113 87q-60 0 -95.5 -43.5t-35.5 -117.5q0 -71 36.5 -112t99.5 -41q53 0 80 26t37 82h64z" />
    <glyph glyph-name="ordfeminine" unicode="&#xaa;" horiz-adv-x="370" 
d="M320 303h-277v51h277v-51zM333 405q-16 -6 -32 -6q-47 0 -55 43q-49 -43 -105 -43q-48 0 -76 26t-28 70q0 51 34.5 74.5t122.5 30.5q28 2 38.5 9t10.5 24v13q0 44 -67 44q-34 0 -48.5 -12t-19.5 -44h-59q3 108 129 108q122 0 122 -94v-179q0 -23 23 -23q4 0 10 3v-44z
M243 517v51q-18 -8 -76 -16q-39 -6 -55.5 -18t-16.5 -36q0 -47 57 -47q37 0 64 20t27 46z" />
    <glyph glyph-name="guillemotleft" unicode="&#xab;" 
d="M250 106l-152 121v89l152 122v-83l-106 -83l106 -83v-83zM455 106l-152 121v89l152 122v-83l-106 -83l106 -83v-83z" />
    <glyph glyph-name="logicalnot" unicode="&#xac;" horiz-adv-x="584" 
d="M516 159h-68v148h-380v68h448v-216z" />
    <glyph glyph-name="uni00AD" unicode="&#xad;" horiz-adv-x="333" 
d="M284 240h-238v72h238v-72z" />
    <glyph glyph-name="registered" unicode="&#xae;" horiz-adv-x="737" 
d="M718 334q0 -144 -102.5 -246t-246.5 -102t-246 102t-102 246t102 246.5t246 102.5t246.5 -102.5t102.5 -246.5zM675 334q0 127 -89.5 216.5t-216.5 89.5t-216 -89.5t-89 -216.5t89 -216t216 -89t216.5 89t89.5 216zM545 135h-73q-14 30 -14 68l1 34q0 66 -67 66h-137
v-168h-63v398h202q65 0 99.5 -28t34.5 -80q0 -64 -62 -93q31 -13 41.5 -33.5t11.5 -68.5q1 -39 5.5 -53t20.5 -24v-18zM464 418q0 63 -81 63h-128v-126h128q42 0 61.5 15t19.5 48z" />
    <glyph glyph-name="macron" unicode="&#xaf;" horiz-adv-x="333" 
d="M302 620h-274v70h274v-70z" />
    <glyph glyph-name="degree" unicode="&#xb0;" horiz-adv-x="400" 
d="M346 557q0 -62 -42 -104t-104 -42t-104 42t-42 104t42 104t104 42t104 -42t42 -104zM298 557q0 40 -29.5 71.5t-68.5 31.5t-68.5 -31.5t-29.5 -71.5t29.5 -71.5t68.5 -31.5t68.5 31.5t29.5 71.5z" />
    <glyph glyph-name="plusminus" unicode="&#xb1;" horiz-adv-x="584" 
d="M516 284h-190v-155h-68v155h-190v68h190v190h68v-190h190v-68zM516 0h-448v68h448v-68z" />
    <glyph glyph-name="two.superior" unicode="&#xb2;" horiz-adv-x="333" 
d="M299 598q0 -70 -85 -113l-55 -29q-29 -14 -42.5 -29.5t-21.5 -40.5h201v-51h-267q3 64 25.5 97.5t85.5 66.5l52 28q51 27 51 69q0 28 -21 47t-53 19q-36 0 -55 -20t-22 -67h-54q3 134 132 134q57 0 93 -31t36 -80z" />
    <glyph glyph-name="three.superior" unicode="&#xb3;" horiz-adv-x="333" 
d="M303 441q0 -54 -37 -86t-99 -32q-64 0 -98.5 32.5t-34.5 92.5h55q1 -41 20.5 -60t59.5 -19q37 0 58 19t21 53q0 38 -25 50.5t-84 12.5v45q56 0 76.5 11t20.5 42q0 28 -18 44t-49 16q-37 0 -54.5 -18t-17.5 -60h-55q3 125 127 125q56 0 89 -28.5t33 -77.5q0 -52 -50 -74
q62 -22 62 -88z" />
    <glyph glyph-name="acute" unicode="&#xb4;" horiz-adv-x="333" 
d="M346 729l-149 -148h-60l96 148h113z" />
    <glyph glyph-name="mu" unicode="&#xb5;" 
d="M544 -14q-33 -9 -57 -9q-83 0 -86 83q-59 -83 -163 -83q-54 0 -90 26v-223h-83v744h83v-371q0 -47 29 -75t78 -28q65 0 104 48.5t39 128.5v297h83v-436q0 -41 45 -41q8 0 18 2v-63z" />
    <glyph glyph-name="paragraph" unicode="&#xb6;" horiz-adv-x="537" 
d="M522 665h-57v-842h-64v842h-82v-842h-64v436q-97 5 -152 70.5t-55 159.5q0 101 65 170.5t159 69.5h250v-64z" />
    <glyph glyph-name="periodcentered" unicode="&#xb7;" horiz-adv-x="278" 
d="M191 250q0 -22 -15 -37t-37 -15t-37 15t-15 37t15 37t37 15t37 -15t15 -37z" />
    <glyph glyph-name="cedilla" unicode="&#xb8;" horiz-adv-x="333" 
d="M287 -137q0 -43 -33 -68t-90 -25q-47 0 -125 34l21 40l9 -4q58 -29 89 -29q23 0 38.5 13t15.5 32q0 18 -12.5 31t-33.5 13q-14 0 -31 -4l-17 12l42 97h48l-23 -59h23q36 0 57.5 -24.5t21.5 -58.5z" />
    <glyph glyph-name="one.superior" unicode="&#xb9;" horiz-adv-x="333" 
d="M211 335h-54v260h-87v41l13 1q46 3 63 16.5t28 55.5h37v-374z" />
    <glyph glyph-name="ordmasculine" unicode="&#xba;" horiz-adv-x="365" 
d="M314 303h-263v51h263v-51zM324 568q0 -79 -37.5 -124t-104.5 -45t-104.5 45t-37.5 127q0 81 37.5 126t104.5 45q68 0 105 -45t37 -129zM266 569q0 57 -22 89t-62 32q-39 0 -61.5 -32t-22.5 -87q0 -56 22.5 -88t61.5 -32t61.5 31.5t22.5 86.5z" />
    <glyph glyph-name="guillemotright" unicode="&#xbb;" 
d="M252 228l-154 -122v83l108 83l-108 83v83l154 -121v-89zM451 228l-154 -122v83l108 83l-108 83v83l154 -121v-89z" />
    <glyph glyph-name="onequarter" unicode="&#xbc;" horiz-adv-x="834" 
d="M222 335h-54v260h-87v41l13 1q46 3 63 16.5t28 55.5h37v-374zM681 709l-452 -734h-58l452 734h58zM767 88h-59v-88h-54v88h-166v52l180 234h40v-239h59v-47zM654 135v149l-114 -149h114z" />
    <glyph glyph-name="onehalf" unicode="&#xbd;" horiz-adv-x="834" 
d="M222 335h-54v260h-87v41l13 1q46 3 63 16.5t28 55.5h37v-374zM637 709l-452 -734h-58l452 734h58zM763 263q0 -70 -85 -113l-55 -29q-29 -14 -42.5 -29.5t-21.5 -40.5h201v-51h-267q3 64 25.5 97.5t85.5 67.5l51 27q52 27 52 69q0 28 -21.5 47t-53.5 19q-36 0 -54.5 -20
t-21.5 -67h-55q4 134 133 134q57 0 93 -31t36 -80z" />
    <glyph glyph-name="threequarters" unicode="&#xbe;" horiz-adv-x="834" 
d="M333 441q0 -54 -37 -86t-99 -32q-64 0 -98.5 32.5t-34.5 92.5h55q1 -41 20.5 -60t59.5 -19q37 0 58 19t21 53q0 38 -25 50.5t-84 12.5v45q56 0 76.5 11t20.5 42q0 28 -18 44t-49 16q-37 0 -54.5 -18t-17.5 -60h-55q3 125 127 125q56 0 89 -28.5t33 -77.5q0 -52 -50 -74
q62 -22 62 -88zM701 709l-452 -734h-58l452 734h58zM757 88h-59v-88h-54v88h-166v52l180 234h40v-239h59v-47zM644 135v149l-114 -149h114z" />
    <glyph glyph-name="questiondown" unicode="&#xbf;" 
d="M486 17q0 -115 -55.5 -174.5t-163.5 -59.5q-97 0 -155 52t-58 140q0 50 22 89t78 90q51 47 65 69.5t14 54.5v47h90v-55q0 -50 -28 -87q-13 -17 -22.5 -26.5t-53.5 -49.5q-75 -67 -75 -132q0 -51 35 -82.5t93 -31.5q67 0 98 37.5t31 118.5h85zM323 420h-90v104h90v-104z
" />
    <glyph glyph-name="Agrave" unicode="&#xc0;" horiz-adv-x="667" 
d="M653 0h-104l-75 219h-281l-77 -219h-99l260 729h120zM448 297l-112 332l-120 -332h232zM373 783h-72l-179 133h136z" />
    <glyph glyph-name="Aacute" unicode="&#xc1;" horiz-adv-x="667" 
d="M653 0h-104l-75 219h-281l-77 -219h-99l260 729h120zM448 297l-112 332l-120 -332h232zM552 916l-179 -133h-72l115 133h136z" />
    <glyph glyph-name="Acircumflex" unicode="&#xc2;" horiz-adv-x="667" 
d="M653 0h-104l-75 219h-281l-77 -219h-99l260 729h120zM448 297l-112 332l-120 -332h232zM509 783h-75l-97 86l-95 -86h-77l115 135h114z" />
    <glyph glyph-name="Atilde" unicode="&#xc3;" horiz-adv-x="667" 
d="M653 0h-104l-75 219h-281l-77 -219h-99l260 729h120zM448 297l-112 332l-120 -332h232zM490 902q-15 -104 -89 -104q-21 0 -85 25q-35 13 -49 13q-23 0 -33 -37h-58q8 49 30.5 76t55.5 27q23 0 70 -19q41 -18 63 -18q25 0 37 37h58z" />
    <glyph glyph-name="Adieresis" unicode="&#xc4;" horiz-adv-x="667" 
d="M653 0h-104l-75 219h-281l-77 -219h-99l260 729h120zM448 297l-112 332l-120 -332h232zM302 799h-91v102h91v-102zM464 799h-91v102h91v-102z" />
    <glyph glyph-name="Aring" unicode="&#xc5;" horiz-adv-x="667" 
d="M653 0h-104l-75 219h-281l-77 -219h-99l260 729h120zM448 297l-112 332l-120 -332h232zM434 864q0 -39 -28.5 -67t-67.5 -28q-40 0 -68.5 28.5t-28.5 68.5q0 38 28.5 66.5t68.5 28.5t68 -28.5t28 -68.5zM386 864q0 21 -14 35t-34 14t-34.5 -14t-14.5 -33
q0 -20 14.5 -34.5t34.5 -14.5q19 0 33.5 14t14.5 33z" />
    <glyph glyph-name="AE" unicode="&#xc6;" horiz-adv-x="1000" 
d="M950 0h-482v214h-269l-85 -214h-103l299 729h622v-82h-371v-233h352v-82h-352v-250h389v-82zM468 296v351h-100l-138 -351h238z" />
    <glyph glyph-name="Ccedilla" unicode="&#xc7;" horiz-adv-x="722" 
d="M677 266q-31 -272 -278 -283l-14 -37h23q36 0 57.5 -24.5t21.5 -58.5q0 -43 -33 -68t-90 -25q-47 0 -125 34l21 40l9 -4q58 -29 89 -29q23 0 38.5 13t15.5 32q0 18 -12.5 31t-33.5 13q-14 0 -31 -4l-17 12l32 75q-144 9 -223 112t-79 261q0 168 87 279.5t246 111.5
q237 0 281 -244h-95q-17 84 -64.5 123t-132.5 39q-105 0 -167 -83.5t-62 -224.5q0 -136 64 -214.5t173 -78.5q91 0 138.5 48.5t64.5 153.5h96z" />
    <glyph glyph-name="Egrave" unicode="&#xc8;" horiz-adv-x="667" 
d="M613 0h-523v729h505v-82h-412v-233h397v-82h-397v-250h430v-82zM379 783h-72l-179 133h136z" />
    <glyph glyph-name="Eacute" unicode="&#xc9;" horiz-adv-x="667" 
d="M613 0h-523v729h505v-82h-412v-233h397v-82h-397v-250h430v-82zM558 916l-179 -133h-72l115 133h136z" />
    <glyph glyph-name="Ecircumflex" unicode="&#xca;" horiz-adv-x="667" 
d="M613 0h-523v729h505v-82h-412v-233h397v-82h-397v-250h430v-82zM515 783h-75l-97 86l-95 -86h-77l115 135h114z" />
    <glyph glyph-name="Edieresis" unicode="&#xcb;" horiz-adv-x="667" 
d="M613 0h-523v729h505v-82h-412v-233h397v-82h-397v-250h430v-82zM308 799h-91v102h91v-102zM470 799h-91v102h91v-102z" />
    <glyph glyph-name="Igrave" unicode="&#xcc;" horiz-adv-x="278" 
d="M193 0h-93v729h93v-729zM193 783h-72l-179 133h136z" />
    <glyph glyph-name="Iacute" unicode="&#xcd;" horiz-adv-x="278" 
d="M193 0h-93v729h93v-729zM352 916l-179 -133h-72l115 133h136z" />
    <glyph glyph-name="Icircumflex" unicode="&#xce;" horiz-adv-x="278" 
d="M193 0h-93v729h93v-729zM319 783h-75l-97 86l-95 -86h-77l115 135h114z" />
    <glyph glyph-name="Idieresis" unicode="&#xcf;" horiz-adv-x="278" 
d="M193 0h-93v729h93v-729zM112 799h-91v102h91v-102zM274 799h-91v102h91v-102z" />
    <glyph glyph-name="Eth" unicode="&#xd0;" horiz-adv-x="722" 
d="M667 365q0 -170 -79 -267.5t-217 -97.5h-282v339h-69v67h69v323h282q138 0 217 -97t79 -267zM574 365q0 139 -56 210.5t-163 71.5h-173v-241h171v-67h-171v-257h173q107 0 163 72t56 211z" />
    <glyph glyph-name="Ntilde" unicode="&#xd1;" horiz-adv-x="722" 
d="M646 0h-105l-377 591v-591h-88v729h101l381 -596v596h88v-729zM514 902q-15 -104 -89 -104q-21 0 -85 25q-35 13 -49 13q-23 0 -33 -37h-58q8 49 30.5 76t55.5 27q23 0 70 -19q41 -18 63 -18q25 0 37 37h58z" />
    <glyph glyph-name="Ograve" unicode="&#xd2;" horiz-adv-x="778" 
d="M742 353q0 -163 -96.5 -267t-255.5 -104q-158 0 -255 103.5t-97 273.5q0 172 97.5 280t253.5 108q160 0 256.5 -108.5t96.5 -285.5zM649 355q0 139 -71 224.5t-189 85.5q-115 0 -186.5 -85.5t-71.5 -220.5q0 -134 71 -214.5t188 -80.5q116 0 187.5 80t71.5 211zM425 783
h-72l-179 133h136z" />
    <glyph glyph-name="Oacute" unicode="&#xd3;" horiz-adv-x="778" 
d="M742 353q0 -163 -96.5 -267t-255.5 -104q-158 0 -255 103.5t-97 273.5q0 172 97.5 280t253.5 108q160 0 256.5 -108.5t96.5 -285.5zM649 355q0 139 -71 224.5t-189 85.5q-115 0 -186.5 -85.5t-71.5 -220.5q0 -134 71 -214.5t188 -80.5q116 0 187.5 80t71.5 211zM604 916
l-179 -133h-72l115 133h136z" />
    <glyph glyph-name="Ocircumflex" unicode="&#xd4;" horiz-adv-x="778" 
d="M742 353q0 -163 -96.5 -267t-255.5 -104q-158 0 -255 103.5t-97 273.5q0 172 97.5 280t253.5 108q160 0 256.5 -108.5t96.5 -285.5zM649 355q0 139 -71 224.5t-189 85.5q-115 0 -186.5 -85.5t-71.5 -220.5q0 -134 71 -214.5t188 -80.5q116 0 187.5 80t71.5 211zM561 783
h-75l-97 86l-95 -86h-77l115 135h114z" />
    <glyph glyph-name="Otilde" unicode="&#xd5;" horiz-adv-x="778" 
d="M742 353q0 -163 -96.5 -267t-255.5 -104q-158 0 -255 103.5t-97 273.5q0 172 97.5 280t253.5 108q160 0 256.5 -108.5t96.5 -285.5zM649 355q0 139 -71 224.5t-189 85.5q-115 0 -186.5 -85.5t-71.5 -220.5q0 -134 71 -214.5t188 -80.5q116 0 187.5 80t71.5 211zM542 902
q-15 -104 -89 -104q-21 0 -85 25q-35 13 -49 13q-23 0 -33 -37h-58q8 49 30.5 76t55.5 27q23 0 70 -19q41 -18 63 -18q25 0 37 37h58z" />
    <glyph glyph-name="Odieresis" unicode="&#xd6;" horiz-adv-x="778" 
d="M742 353q0 -163 -96.5 -267t-255.5 -104q-158 0 -255 103.5t-97 273.5q0 172 97.5 280t253.5 108q160 0 256.5 -108.5t96.5 -285.5zM649 355q0 139 -71 224.5t-189 85.5q-115 0 -186.5 -85.5t-71.5 -220.5q0 -134 71 -214.5t188 -80.5q116 0 187.5 80t71.5 211zM354 799
h-91v102h91v-102zM516 799h-91v102h91v-102z" />
    <glyph glyph-name="multiply" unicode="&#xd7;" horiz-adv-x="584" 
d="M474 116l-48 -48l-134 134l-134 -134l-48 48l134 134l-134 134l48 48l134 -134l134 134l48 -48l-134 -134z" />
    <glyph glyph-name="Oslash" unicode="&#xd8;" horiz-adv-x="778" 
d="M742 353q0 -163 -96.5 -267t-255.5 -104q-143 0 -236 84l-75 -82l-41 37l79 86q-79 99 -79 252q0 172 97.5 280t253.5 108q142 0 235 -87l77 85l41 -37l-81 -88q81 -106 81 -267zM649 355q0 117 -51 196l-384 -419q68 -68 176 -68q116 0 187.5 80t71.5 211zM564 595
q-68 70 -175 70q-115 0 -186.5 -85.5t-71.5 -220.5q0 -110 48 -184z" />
    <glyph glyph-name="Ugrave" unicode="&#xd9;" horiz-adv-x="722" 
d="M645 222q0 -110 -76.5 -175t-204.5 -65q-130 0 -204.5 64.5t-74.5 175.5v507h93v-507q0 -77 50.5 -117.5t135.5 -40.5q88 0 138 42t50 116v507h93v-507zM397 783h-72l-179 133h136z" />
    <glyph glyph-name="Uacute" unicode="&#xda;" horiz-adv-x="722" 
d="M645 222q0 -110 -76.5 -175t-204.5 -65q-130 0 -204.5 64.5t-74.5 175.5v507h93v-507q0 -77 50.5 -117.5t135.5 -40.5q88 0 138 42t50 116v507h93v-507zM576 916l-179 -133h-72l115 133h136z" />
    <glyph glyph-name="Ucircumflex" unicode="&#xdb;" horiz-adv-x="722" 
d="M645 222q0 -110 -76.5 -175t-204.5 -65q-130 0 -204.5 64.5t-74.5 175.5v507h93v-507q0 -77 50.5 -117.5t135.5 -40.5q88 0 138 42t50 116v507h93v-507zM533 783h-75l-97 86l-95 -86h-77l115 135h114z" />
    <glyph glyph-name="Udieresis" unicode="&#xdc;" horiz-adv-x="722" 
d="M645 222q0 -110 -76.5 -175t-204.5 -65q-130 0 -204.5 64.5t-74.5 175.5v507h93v-507q0 -77 50.5 -117.5t135.5 -40.5q88 0 138 42t50 116v507h93v-507zM326 799h-91v102h91v-102zM488 799h-91v102h91v-102z" />
    <glyph glyph-name="Yacute" unicode="&#xdd;" horiz-adv-x="667" 
d="M661 729l-274 -443v-286h-93v286l-281 443h115l214 -355l208 355h111zM556 916l-179 -133h-72l115 133h136z" />
    <glyph glyph-name="Thorn" unicode="&#xde;" horiz-adv-x="667" 
d="M616 397q0 -91 -57 -149.5t-146 -58.5h-229v-189h-93v729h93v-120h208q104 0 164 -56.5t60 -155.5zM516 399q0 60 -36.5 94t-101.5 34h-194v-256h194q65 0 101.5 34t36.5 94z" />
    <glyph glyph-name="germandbls" unicode="&#xdf;" horiz-adv-x="611" 
d="M566 219q0 -110 -60.5 -174.5t-163.5 -64.5q-47 0 -84 4v83q42 -5 76 -5q64 0 104.5 42t40.5 109q0 77 -46 106.5t-141 29.5v82q59 0 102.5 30.5t43.5 80.5q0 49 -43.5 79t-101.5 30q-57 0 -98.5 -32t-41.5 -81v-538h-83v538q0 82 65.5 136.5t155.5 54.5
q95 0 164.5 -51.5t69.5 -132.5q0 -48 -27 -87.5t-72 -56.5q62 -16 101 -67t39 -115z" />
    <glyph glyph-name="agrave" unicode="&#xe0;" 
d="M535 2q-35 -9 -57 -9q-31 0 -55 19.5t-31 49.5q-72 -77 -178 -77q-80 0 -126 40t-46 111q0 98 92 136q25 10 53 15.5t115 16.5q49 6 68 19t19 39v22q0 38 -30.5 58t-86.5 20q-58 0 -88 -22.5t-35 -70.5h-84q7 170 210 170q97 0 147 -36.5t50 -106.5v-292q0 -41 45 -41
q9 0 18 2v-63zM389 181v78q-33 -15 -134 -29q-68 -10 -97 -30.5t-29 -61.5q0 -80 103 -80q63 0 110 34.5t47 88.5zM305 581h-60l-149 148h113z" />
    <glyph glyph-name="aacute" unicode="&#xe1;" 
d="M535 2q-35 -9 -57 -9q-31 0 -55 19.5t-31 49.5q-72 -77 -178 -77q-80 0 -126 40t-46 111q0 98 92 136q25 10 53 15.5t115 16.5q49 6 68 19t19 39v22q0 38 -30.5 58t-86.5 20q-58 0 -88 -22.5t-35 -70.5h-84q7 170 210 170q97 0 147 -36.5t50 -106.5v-292q0 -41 45 -41
q9 0 18 2v-63zM389 181v78q-33 -15 -134 -29q-68 -10 -97 -30.5t-29 -61.5q0 -80 103 -80q63 0 110 34.5t47 88.5zM454 729l-149 -148h-60l96 148h113z" />
    <glyph glyph-name="acircumflex" unicode="&#xe2;" 
d="M535 2q-35 -9 -57 -9q-31 0 -55 19.5t-31 49.5q-72 -77 -178 -77q-80 0 -126 40t-46 111q0 98 92 136q25 10 53 15.5t115 16.5q49 6 68 19t19 39v22q0 38 -30.5 58t-86.5 20q-58 0 -88 -22.5t-35 -70.5h-84q7 170 210 170q97 0 147 -36.5t50 -106.5v-292q0 -41 45 -41
q9 0 18 2v-63zM389 181v78q-33 -15 -134 -29q-68 -10 -97 -30.5t-29 -61.5q0 -80 103 -80q63 0 110 34.5t47 88.5zM418 580h-63l-81 96l-79 -96h-64l96 150h95z" />
    <glyph glyph-name="atilde" unicode="&#xe3;" 
d="M535 2q-35 -9 -57 -9q-31 0 -55 19.5t-31 49.5q-72 -77 -178 -77q-80 0 -126 40t-46 111q0 98 92 136q25 10 53 15.5t115 16.5q49 6 68 19t19 39v22q0 38 -30.5 58t-86.5 20q-58 0 -88 -22.5t-35 -70.5h-84q7 170 210 170q97 0 147 -36.5t50 -106.5v-292q0 -41 45 -41
q9 0 18 2v-63zM389 181v78q-33 -15 -134 -29q-68 -10 -97 -30.5t-29 -61.5q0 -80 103 -80q63 0 110 34.5t47 88.5zM427 707q-15 -104 -89 -104q-21 0 -85 25q-35 13 -49 13q-23 0 -33 -37h-58q8 49 30.5 76t55.5 27q23 0 70 -19q41 -18 63 -18q25 0 37 37h58z" />
    <glyph glyph-name="adieresis" unicode="&#xe4;" 
d="M535 2q-35 -9 -57 -9q-31 0 -55 19.5t-31 49.5q-72 -77 -178 -77q-80 0 -126 40t-46 111q0 98 92 136q25 10 53 15.5t115 16.5q49 6 68 19t19 39v22q0 38 -30.5 58t-86.5 20q-58 0 -88 -22.5t-35 -70.5h-84q7 170 210 170q97 0 147 -36.5t50 -106.5v-292q0 -41 45 -41
q9 0 18 2v-63zM389 181v78q-33 -15 -134 -29q-68 -10 -97 -30.5t-29 -61.5q0 -80 103 -80q63 0 110 34.5t47 88.5zM239 604h-91v102h91v-102zM401 604h-91v102h91v-102z" />
    <glyph glyph-name="aring" unicode="&#xe5;" 
d="M535 2q-35 -9 -57 -9q-31 0 -55 19.5t-31 49.5q-72 -77 -178 -77q-80 0 -126 40t-46 111q0 98 92 136q25 10 53 15.5t115 16.5q49 6 68 19t19 39v22q0 38 -30.5 58t-86.5 20q-58 0 -88 -22.5t-35 -70.5h-84q7 170 210 170q97 0 147 -36.5t50 -106.5v-292q0 -41 45 -41
q9 0 18 2v-63zM389 181v78q-33 -15 -134 -29q-68 -10 -97 -30.5t-29 -61.5q0 -80 103 -80q63 0 110 34.5t47 88.5zM371 654q0 -39 -28.5 -67t-67.5 -28q-40 0 -68.5 28.5t-28.5 68.5q0 38 28.5 66.5t68.5 28.5t68 -28.5t28 -68.5zM323 654q0 21 -14 35t-34 14t-34.5 -14
t-14.5 -33q0 -20 14.5 -34.5t34.5 -14.5q19 0 33.5 14t14.5 33z" />
    <glyph glyph-name="ae" unicode="&#xe6;" horiz-adv-x="889" 
d="M845 234h-386q1 -82 44 -127t110 -45q100 0 138 97h84q-16 -80 -75.5 -127t-147.5 -47q-58 0 -105 22t-73 61l-16 27q-56 -58 -106.5 -84t-109.5 -26q-77 0 -122.5 40.5t-45.5 110.5q0 82 54.5 118t205.5 49q51 4 69 17t18 42v22q0 78 -118 78q-112 0 -122 -93h-84
q7 170 208 170q128 0 175 -82q27 38 73 60t100 22q73 0 129 -37t82 -101q21 -55 21 -167zM381 165v93q-33 -14 -134 -29q-69 -10 -97.5 -30t-28.5 -61q0 -39 26.5 -59.5t73.5 -20.5q55 0 107.5 36.5t52.5 70.5zM755 302q0 71 -40 115.5t-104 44.5q-63 0 -104 -43.5
t-46 -116.5h294z" />
    <glyph glyph-name="ccedilla" unicode="&#xe7;" horiz-adv-x="500" 
d="M477 180q-7 -83 -55.5 -134.5t-130.5 -59.5l-16 -40h23q36 0 57.5 -24.5t21.5 -58.5q0 -43 -33 -68t-90 -25q-47 0 -125 34l21 40l9 -4q58 -29 89 -29q23 0 38.5 13t15.5 32q0 18 -12.5 31t-33.5 13q-14 0 -31 -4l-17 12l34 78q-98 8 -154.5 80t-56.5 191q0 130 63.5 206
t169.5 76q90 0 145 -48.5t62 -142.5h-84q-8 55 -40 84.5t-84 29.5q-69 0 -107 -53.5t-38 -151.5q0 -93 39 -144t108 -51q54 0 86 28t42 90h84z" />
    <glyph glyph-name="egrave" unicode="&#xe8;" 
d="M513 238h-386q1 -87 43.5 -131.5t110.5 -44.5q105 0 137 97h84q-16 -80 -75.5 -127t-148.5 -47q-111 0 -174.5 72.5t-63.5 201.5t65 204.5t175 75.5q74 0 130.5 -37t81.5 -101q21 -55 21 -163zM424 312q0 62 -42 106t-103 44q-63 0 -104 -43t-46 -113h294zM310 581h-60
l-149 148h113z" />
    <glyph glyph-name="eacute" unicode="&#xe9;" 
d="M513 238h-386q1 -87 43.5 -131.5t110.5 -44.5q105 0 137 97h84q-16 -80 -75.5 -127t-148.5 -47q-111 0 -174.5 72.5t-63.5 201.5t65 204.5t175 75.5q74 0 130.5 -37t81.5 -101q21 -55 21 -163zM424 312q0 62 -42 106t-103 44q-63 0 -104 -43t-46 -113h294zM459 729
l-149 -148h-60l96 148h113z" />
    <glyph glyph-name="ecircumflex" unicode="&#xea;" 
d="M513 238h-386q1 -87 43.5 -131.5t110.5 -44.5q105 0 137 97h84q-16 -80 -75.5 -127t-148.5 -47q-111 0 -174.5 72.5t-63.5 201.5t65 204.5t175 75.5q74 0 130.5 -37t81.5 -101q21 -55 21 -163zM424 312q0 62 -42 106t-103 44q-63 0 -104 -43t-46 -113h294zM423 580h-63
l-81 96l-79 -96h-64l96 150h95z" />
    <glyph glyph-name="edieresis" unicode="&#xeb;" 
d="M513 238h-386q1 -87 43.5 -131.5t110.5 -44.5q105 0 137 97h84q-16 -80 -75.5 -127t-148.5 -47q-111 0 -174.5 72.5t-63.5 201.5t65 204.5t175 75.5q74 0 130.5 -37t81.5 -101q21 -55 21 -163zM424 312q0 62 -42 106t-103 44q-63 0 -104 -43t-46 -113h294zM244 604h-91
v102h91v-102zM406 604h-91v102h91v-102z" />
    <glyph glyph-name="igrave" unicode="&#xec;" horiz-adv-x="278" 
d="M181 0h-83v524h83v-524zM181 581h-60l-149 148h113z" />
    <glyph glyph-name="iacute" unicode="&#xed;" horiz-adv-x="278" 
d="M181 0h-83v524h83v-524zM308 729l-149 -148h-60l96 148h113z" />
    <glyph glyph-name="icircumflex" unicode="&#xee;" horiz-adv-x="278" 
d="M181 0h-83v524h83v-524zM283 580h-63l-81 96l-79 -96h-64l96 150h95z" />
    <glyph glyph-name="idieresis" unicode="&#xef;" horiz-adv-x="278" 
d="M181 0h-83v524h83v-524zM104 604h-91v102h91v-102zM266 604h-91v102h91v-102z" />
    <glyph glyph-name="eth" unicode="&#xf0;" 
d="M510 263q0 -134 -61.5 -206t-175.5 -72t-175.5 71.5t-61.5 205.5q0 128 59 201.5t159 73.5q24 0 63 -13q-39 40 -98 89l-97 -45l-36 39l85 40q-30 23 -82 52l44 44q37 -16 111 -63l97 45l40 -37l-90 -41q117 -89 168 -181t51 -203zM423 259q0 97 -39.5 150t-110.5 53
q-70 0 -110 -53t-40 -147t40 -147t110 -53q69 0 109.5 52.5t40.5 144.5z" />
    <glyph glyph-name="ntilde" unicode="&#xf1;" 
d="M487 0h-83v363q0 47 -29 75t-79 28q-64 0 -103.5 -48.5t-39.5 -128.5v-289h-83v524h77v-88q35 55 75.5 79t98.5 24q76 0 121 -39t45 -104v-396zM430 707q-15 -104 -89 -104q-21 0 -85 25q-35 13 -49 13q-23 0 -33 -37h-58q8 49 30.5 76t55.5 27q23 0 70 -19
q41 -18 63 -18q25 0 37 37h58z" />
    <glyph glyph-name="ograve" unicode="&#xf2;" 
d="M510 258q0 -129 -63 -201t-174 -72q-112 0 -174.5 72.5t-62.5 204.5q0 131 62.5 204t173.5 73q114 0 176 -73t62 -208zM423 259q0 97 -39.5 150t-110.5 53q-70 0 -110 -53t-40 -147q0 -95 40 -147.5t110 -52.5q69 0 109.5 52.5t40.5 144.5zM308 581h-60l-149 148h113z
" />
    <glyph glyph-name="oacute" unicode="&#xf3;" 
d="M510 258q0 -129 -63 -201t-174 -72q-112 0 -174.5 72.5t-62.5 204.5q0 131 62.5 204t173.5 73q114 0 176 -73t62 -208zM423 259q0 97 -39.5 150t-110.5 53q-70 0 -110 -53t-40 -147q0 -95 40 -147.5t110 -52.5q69 0 109.5 52.5t40.5 144.5zM457 729l-149 -148h-60l96 148
h113z" />
    <glyph glyph-name="ocircumflex" unicode="&#xf4;" 
d="M510 258q0 -129 -63 -201t-174 -72q-112 0 -174.5 72.5t-62.5 204.5q0 131 62.5 204t173.5 73q114 0 176 -73t62 -208zM423 259q0 97 -39.5 150t-110.5 53q-70 0 -110 -53t-40 -147q0 -95 40 -147.5t110 -52.5q69 0 109.5 52.5t40.5 144.5zM421 580h-63l-81 96l-79 -96
h-64l96 150h95z" />
    <glyph glyph-name="otilde" unicode="&#xf5;" 
d="M510 258q0 -129 -63 -201t-174 -72q-112 0 -174.5 72.5t-62.5 204.5q0 131 62.5 204t173.5 73q114 0 176 -73t62 -208zM423 259q0 97 -39.5 150t-110.5 53q-70 0 -110 -53t-40 -147q0 -95 40 -147.5t110 -52.5q69 0 109.5 52.5t40.5 144.5zM430 707q-15 -104 -89 -104
q-21 0 -85 25q-35 13 -49 13q-23 0 -33 -37h-58q8 49 30.5 76t55.5 27q23 0 70 -19q41 -18 63 -18q25 0 37 37h58z" />
    <glyph glyph-name="odieresis" unicode="&#xf6;" 
d="M510 258q0 -129 -63 -201t-174 -72q-112 0 -174.5 72.5t-62.5 204.5q0 131 62.5 204t173.5 73q114 0 176 -73t62 -208zM423 259q0 97 -39.5 150t-110.5 53q-70 0 -110 -53t-40 -147q0 -95 40 -147.5t110 -52.5q69 0 109.5 52.5t40.5 144.5zM242 604h-91v102h91v-102z
M404 604h-91v102h91v-102z" />
    <glyph glyph-name="divide" unicode="&#xf7;" horiz-adv-x="584" 
d="M516 216h-448v68h448v-68zM344 432q0 -21 -15 -36.5t-37 -15.5t-37 15.5t-15 36.5q0 22 15 37t37 15t37 -15t15 -37zM344 68q0 -22 -15 -37t-37 -15t-37 15t-15 37q0 21 15 36.5t37 15.5t37 -15.5t15 -36.5z" />
    <glyph glyph-name="oslash" unicode="&#xf8;" 
d="M510 258q0 -129 -63 -201t-174 -72q-96 0 -156 54l-42 -49l-37 31l46 55q-48 73 -48 186q0 131 62.5 204t173.5 73q98 0 157 -54l42 49l37 -31l-46 -55q48 -73 48 -190zM423 259q0 70 -21 118l-230 -273q39 -42 101 -42q69 0 109.5 52.5t40.5 144.5zM374 420
q-38 42 -101 42q-70 0 -110 -53t-40 -147q0 -68 21 -115z" />
    <glyph glyph-name="ugrave" unicode="&#xf9;" 
d="M482 0h-75v81q-37 -52 -77 -74t-98 -22q-76 0 -121.5 39t-45.5 104v396h83v-363q0 -47 29 -75t79 -28q65 0 104 48.5t39 128.5v289h83v-524zM308 581h-60l-149 148h113z" />
    <glyph glyph-name="uacute" unicode="&#xfa;" 
d="M482 0h-75v81q-37 -52 -77 -74t-98 -22q-76 0 -121.5 39t-45.5 104v396h83v-363q0 -47 29 -75t79 -28q65 0 104 48.5t39 128.5v289h83v-524zM457 729l-149 -148h-60l96 148h113z" />
    <glyph glyph-name="ucircumflex" unicode="&#xfb;" 
d="M482 0h-75v81q-37 -52 -77 -74t-98 -22q-76 0 -121.5 39t-45.5 104v396h83v-363q0 -47 29 -75t79 -28q65 0 104 48.5t39 128.5v289h83v-524zM421 580h-63l-81 96l-79 -96h-64l96 150h95z" />
    <glyph glyph-name="udieresis" unicode="&#xfc;" 
d="M482 0h-75v81q-37 -52 -77 -74t-98 -22q-76 0 -121.5 39t-45.5 104v396h83v-363q0 -47 29 -75t79 -28q65 0 104 48.5t39 128.5v289h83v-524zM242 604h-91v102h91v-102zM404 604h-91v102h91v-102z" />
    <glyph glyph-name="yacute" unicode="&#xfd;" horiz-adv-x="500" 
d="M478 524l-233 -634q-40 -108 -135 -108q-31 0 -56 13v75q27 -6 44 -6q27 0 41.5 11.5t25.5 39.5l32 83l-177 526h89l134 -408l145 408h90zM429 729l-149 -148h-60l96 148h113z" />
    <glyph glyph-name="thorn" unicode="&#xfe;" 
d="M522 253q0 -120 -61.5 -194t-162.5 -74q-97 0 -161 78v-281h-83v932h83v-255q56 80 161 80q102 0 163 -78t61 -208zM435 255q0 94 -41.5 150t-110.5 56q-66 0 -106 -55.5t-40 -147.5q0 -87 40 -141t106 -54q68 0 110 54t42 138z" />
    <glyph glyph-name="ydieresis" unicode="&#xff;" horiz-adv-x="500" 
d="M478 524l-233 -634q-40 -108 -135 -108q-31 0 -56 13v75q27 -6 44 -6q27 0 41.5 11.5t25.5 39.5l32 83l-177 526h89l134 -408l145 408h90zM214 604h-91v102h91v-102zM376 604h-91v102h91v-102z" />
    <glyph glyph-name="Amacron" unicode="&#x100;" horiz-adv-x="667" 
d="M653 0h-104l-75 219h-281l-77 -219h-99l260 729h120zM448 297l-112 332l-120 -332h232zM473 815h-274v70h274v-70z" />
    <glyph glyph-name="amacron" unicode="&#x101;" 
d="M535 2q-35 -9 -57 -9q-31 0 -55 19.5t-31 49.5q-72 -77 -178 -77q-80 0 -126 40t-46 111q0 98 92 136q25 10 53 15.5t115 16.5q49 6 68 19t19 39v22q0 38 -30.5 58t-86.5 20q-58 0 -88 -22.5t-35 -70.5h-84q7 170 210 170q97 0 147 -36.5t50 -106.5v-292q0 -41 45 -41
q9 0 18 2v-63zM389 181v78q-33 -15 -134 -29q-68 -10 -97 -30.5t-29 -61.5q0 -80 103 -80q63 0 110 34.5t47 88.5zM410 620h-274v70h274v-70z" />
    <glyph glyph-name="Abreve" unicode="&#x102;" horiz-adv-x="667" 
d="M653 0h-104l-75 219h-281l-77 -219h-99l260 729h120zM448 297l-112 332l-120 -332h232zM517 911q-12 -122 -182 -122q-81 0 -129.5 30t-49.5 92h71q4 -29 30 -39.5t80 -10.5q104 0 109 50h71z" />
    <glyph glyph-name="abreve" unicode="&#x103;" 
d="M535 2q-35 -9 -57 -9q-31 0 -55 19.5t-31 49.5q-72 -77 -178 -77q-80 0 -126 40t-46 111q0 98 92 136q25 10 53 15.5t115 16.5q49 6 68 19t19 39v22q0 38 -30.5 58t-86.5 20q-58 0 -88 -22.5t-35 -70.5h-84q7 170 210 170q97 0 147 -36.5t50 -106.5v-292q0 -41 45 -41
q9 0 18 2v-63zM389 181v78q-33 -15 -134 -29q-68 -10 -97 -30.5t-29 -61.5q0 -80 103 -80q63 0 110 34.5t47 88.5zM424 723q0 -57 -45 -96t-107 -39t-107 39t-45 96h54q12 -30 39 -48t59 -18t59 18t39 48h54z" />
    <glyph glyph-name="Aogonek" unicode="&#x104;" horiz-adv-x="667" 
d="M653 -230h-50q-49 0 -85.5 26t-36.5 71q0 39 20 71q19 32 48 62l-75 219h-281l-77 -219h-99l260 729h120l256 -729q-47 0 -78 -49q-16 -23 -16 -59q0 -44 44 -44h50v-78zM448 297l-112 332l-120 -332h232z" />
    <glyph glyph-name="aogonek" unicode="&#x105;" 
d="M535 -230h-50q-49 0 -85.5 26t-36.5 71q0 73 80 133q-41 18 -51 62q-72 -77 -178 -77q-80 0 -126 40t-46 111q0 98 92 136q25 10 53 15.5t115 16.5q49 6 68 19t19 39v22q0 38 -30.5 58t-86.5 20q-58 0 -88 -22.5t-35 -70.5h-84q7 170 210 170q97 0 147 -36.5t50 -106.5
v-292q0 -41 45 -41q9 0 18 2v-63l-18 -4q-34 -8 -55 -38t-21 -68q0 -44 44 -44h50v-78zM389 181v78q-33 -15 -134 -29q-68 -10 -97 -30.5t-29 -61.5q0 -80 103 -80q63 0 110 34.5t47 88.5z" />
    <glyph glyph-name="Cacute" unicode="&#x106;" horiz-adv-x="722" 
d="M677 266q-33 -284 -300 -284q-156 0 -242.5 104.5t-86.5 269.5q0 168 87 279.5t246 111.5q237 0 281 -244h-95q-17 84 -64.5 123t-132.5 39q-105 0 -167 -83.5t-62 -224.5q0 -136 64 -214.5t173 -78.5q91 0 138.5 48.5t64.5 153.5h96zM585 916l-179 -133h-72l115 133h136
z" />
    <glyph glyph-name="cacute" unicode="&#x107;" horiz-adv-x="500" 
d="M477 180q-8 -91 -64.5 -143t-149.5 -52q-107 0 -169.5 73t-62.5 199q0 130 63.5 206t169.5 76q90 0 145 -48.5t62 -142.5h-84q-8 55 -40 84.5t-84 29.5q-69 0 -107 -53.5t-38 -151.5q0 -93 39 -144t108 -51q54 0 86 28t42 90h84zM443 729l-149 -148h-60l96 148h113z" />
    <glyph glyph-name="Ccircumflex" unicode="&#x108;" horiz-adv-x="722" 
d="M677 266q-33 -284 -300 -284q-156 0 -242.5 104.5t-86.5 269.5q0 168 87 279.5t246 111.5q237 0 281 -244h-95q-17 84 -64.5 123t-132.5 39q-105 0 -167 -83.5t-62 -224.5q0 -136 64 -214.5t173 -78.5q91 0 138.5 48.5t64.5 153.5h96zM542 783h-75l-97 86l-95 -86h-77
l115 135h114z" />
    <glyph glyph-name="ccircumflex" unicode="&#x109;" horiz-adv-x="500" 
d="M477 180q-8 -91 -64.5 -143t-149.5 -52q-107 0 -169.5 73t-62.5 199q0 130 63.5 206t169.5 76q90 0 145 -48.5t62 -142.5h-84q-8 55 -40 84.5t-84 29.5q-69 0 -107 -53.5t-38 -151.5q0 -93 39 -144t108 -51q54 0 86 28t42 90h84zM407 580h-63l-81 96l-79 -96h-64l96 150
h95z" />
    <glyph glyph-name="Cdotaccent" unicode="&#x10a;" horiz-adv-x="722" 
d="M677 266q-33 -284 -300 -284q-156 0 -242.5 104.5t-86.5 269.5q0 168 87 279.5t246 111.5q237 0 281 -244h-95q-17 84 -64.5 123t-132.5 39q-105 0 -167 -83.5t-62 -224.5q0 -136 64 -214.5t173 -78.5q91 0 138.5 48.5t64.5 153.5h96zM423 798h-104v104h104v-104z" />
    <glyph glyph-name="cdotaccent" unicode="&#x10b;" horiz-adv-x="500" 
d="M477 180q-8 -91 -64.5 -143t-149.5 -52q-107 0 -169.5 73t-62.5 199q0 130 63.5 206t169.5 76q90 0 145 -48.5t62 -142.5h-84q-8 55 -40 84.5t-84 29.5q-69 0 -107 -53.5t-38 -151.5q0 -93 39 -144t108 -51q54 0 86 28t42 90h84zM316 603h-104v104h104v-104z" />
    <glyph glyph-name="Ccaron" unicode="&#x10c;" horiz-adv-x="722" 
d="M677 266q-33 -284 -300 -284q-156 0 -242.5 104.5t-86.5 269.5q0 168 87 279.5t246 111.5q237 0 281 -244h-95q-17 84 -64.5 123t-132.5 39q-105 0 -167 -83.5t-62 -224.5q0 -136 64 -214.5t173 -78.5q91 0 138.5 48.5t64.5 153.5h96zM543 918l-115 -135h-114l-115 135
h75l97 -86l95 86h77z" />
    <glyph glyph-name="ccaron" unicode="&#x10d;" horiz-adv-x="500" 
d="M477 180q-8 -91 -64.5 -143t-149.5 -52q-107 0 -169.5 73t-62.5 199q0 130 63.5 206t169.5 76q90 0 145 -48.5t62 -142.5h-84q-8 55 -40 84.5t-84 29.5q-69 0 -107 -53.5t-38 -151.5q0 -93 39 -144t108 -51q54 0 86 28t42 90h84zM407 730l-96 -150h-95l-96 150h63l81 -96
l79 96h64z" />
    <glyph glyph-name="Dcaron" unicode="&#x10e;" horiz-adv-x="722" 
d="M667 365q0 -170 -79.5 -267.5t-217.5 -97.5h-281v729h281q139 0 218 -97t79 -267zM574 364q0 139 -56 211t-164 72h-172v-565h172q108 0 164 72t56 210zM527 918l-115 -135h-114l-115 135h75l97 -86l95 86h77z" />
    <glyph glyph-name="dcaron" unicode="&#x10f;" 
d="M495 0h-74v77q-34 -49 -73.5 -70.5t-93.5 -21.5q-106 0 -167 75t-61 207q0 125 61.5 198.5t163.5 73.5q108 0 161 -81v271h83v-729zM412 260q0 91 -40 146t-107 55q-69 0 -110.5 -54t-41.5 -145t42 -145t111 -54q66 0 106 53.5t40 143.5zM663 626q0 -57 -26.5 -89
t-73.5 -32v38q55 0 55 78v8h-55v100h100v-103z" />
    <glyph glyph-name="Dcroat" unicode="&#x110;" horiz-adv-x="722" 
d="M667 365q0 -170 -79 -267.5t-217 -97.5h-282v339h-69v67h69v323h282q138 0 217 -97t79 -267zM574 365q0 139 -56 210.5t-163 71.5h-173v-241h171v-67h-171v-257h173q107 0 163 72t56 211z" />
    <glyph glyph-name="dcroat" unicode="&#x111;" 
d="M557 600h-63v-600h-74v67q-70 -82 -168 -82q-102 0 -164 77t-62 206q0 124 61 197.5t163 73.5q97 0 161 -78v139h-150v53h150v76h83v-76h63v-53zM411 260q0 92 -39.5 144.5t-106.5 52.5q-69 0 -110.5 -53t-41.5 -142t41.5 -142t110.5 -53q66 0 106 52t40 141z" />
    <glyph glyph-name="Emacron" unicode="&#x112;" horiz-adv-x="667" 
d="M613 0h-523v729h505v-82h-412v-233h397v-82h-397v-250h430v-82zM479 815h-274v70h274v-70z" />
    <glyph glyph-name="emacron" unicode="&#x113;" 
d="M513 238h-386q1 -87 43.5 -131.5t110.5 -44.5q105 0 137 97h84q-16 -80 -75.5 -127t-148.5 -47q-111 0 -174.5 72.5t-63.5 201.5t65 204.5t175 75.5q74 0 130.5 -37t81.5 -101q21 -55 21 -163zM424 312q0 62 -42 106t-103 44q-63 0 -104 -43t-46 -113h294zM415 620h-274
v70h274v-70z" />
    <glyph glyph-name="Ebreve" unicode="&#x114;" horiz-adv-x="667" 
d="M613 0h-523v729h505v-82h-412v-233h397v-82h-397v-250h430v-82zM523 911q-12 -122 -182 -122q-81 0 -129.5 30t-49.5 92h71q4 -29 30 -39.5t80 -10.5q104 0 109 50h71z" />
    <glyph glyph-name="ebreve" unicode="&#x115;" 
d="M513 238h-386q1 -87 43.5 -131.5t110.5 -44.5q105 0 137 97h84q-16 -80 -75.5 -127t-148.5 -47q-111 0 -174.5 72.5t-63.5 201.5t65 204.5t175 75.5q74 0 130.5 -37t81.5 -101q21 -55 21 -163zM424 312q0 62 -42 106t-103 44q-63 0 -104 -43t-46 -113h294zM429 723
q0 -57 -45 -96t-107 -39t-107 39t-45 96h54q12 -30 39 -48t59 -18t59 18t39 48h54z" />
    <glyph glyph-name="Edotaccent" unicode="&#x116;" horiz-adv-x="667" 
d="M613 0h-523v729h505v-82h-412v-233h397v-82h-397v-250h430v-82zM396 798h-104v104h104v-104z" />
    <glyph glyph-name="edotaccent" unicode="&#x117;" 
d="M513 238h-386q1 -87 43.5 -131.5t110.5 -44.5q105 0 137 97h84q-16 -80 -75.5 -127t-148.5 -47q-111 0 -174.5 72.5t-63.5 201.5t65 204.5t175 75.5q74 0 130.5 -37t81.5 -101q21 -55 21 -163zM424 312q0 62 -42 106t-103 44q-63 0 -104 -43t-46 -113h294zM332 603h-104
v104h104v-104z" />
    <glyph glyph-name="Eogonek" unicode="&#x118;" horiz-adv-x="667" 
d="M613 -230h-50q-49 0 -85.5 26t-36.5 71q0 72 79 133h-430v729h505v-82h-412v-233h397v-82h-397v-250h430v-82q-47 0 -78 -49q-16 -23 -16 -59q0 -44 44 -44h50v-78z" />
    <glyph glyph-name="eogonek" unicode="&#x119;" 
d="M513 238h-386q1 -87 43.5 -131.5t110.5 -44.5q105 0 137 97h84q-22 -107 -113 -150q-92 -45 -92 -117q0 -44 44 -44h50v-78h-50q-49 0 -85.5 26t-36.5 71q0 65 61 118h-2q-111 0 -174.5 72.5t-63.5 201.5t65 204.5t175 75.5q74 0 130.5 -37t81.5 -101q21 -55 21 -163z
M424 312q0 62 -42 106t-103 44q-63 0 -104 -43t-46 -113h294z" />
    <glyph glyph-name="Ecaron" unicode="&#x11a;" horiz-adv-x="667" 
d="M613 0h-523v729h505v-82h-412v-233h397v-82h-397v-250h430v-82zM516 918l-115 -135h-114l-115 135h75l97 -86l95 86h77z" />
    <glyph glyph-name="ecaron" unicode="&#x11b;" 
d="M513 238h-386q1 -87 43.5 -131.5t110.5 -44.5q105 0 137 97h84q-16 -80 -75.5 -127t-148.5 -47q-111 0 -174.5 72.5t-63.5 201.5t65 204.5t175 75.5q74 0 130.5 -37t81.5 -101q21 -55 21 -163zM424 312q0 62 -42 106t-103 44q-63 0 -104 -43t-46 -113h294zM423 730
l-96 -150h-95l-96 150h63l81 -96l79 96h64z" />
    <glyph glyph-name="Gcircumflex" unicode="&#x11c;" horiz-adv-x="778" 
d="M709 0h-59l-23 96q-102 -114 -249 -114q-148 0 -241 103.5t-93 271.5q0 169 93.5 279.5t256.5 110.5q125 0 205 -63.5t100 -175.5h-95q-15 71 -72 114t-139 43q-115 0 -185.5 -84t-70.5 -219t69.5 -216.5t191.5 -81.5q100 0 164.5 61t64.5 158v20h-222v82h304v-385z
M566 783h-75l-97 86l-95 -86h-77l115 135h114z" />
    <glyph glyph-name="gcircumflex" unicode="&#x11d;" 
d="M489 86q0 -170 -54 -237t-180 -67q-92 0 -147 42t-62 116h85q14 -88 127 -88q76 0 115 45.5t39 146.5v35q-42 -50 -80 -72t-87 -22q-94 0 -155 75t-61 197q0 127 61.5 204.5t161.5 77.5q98 0 160 -91v76h77v-438zM404 259q0 95 -38 149t-105 54t-106 -53t-39 -147
q0 -95 38.5 -147.5t107.5 -52.5q66 0 104 52t38 145zM421 580h-63l-81 96l-79 -96h-64l96 150h95z" />
    <glyph glyph-name="Gbreve" unicode="&#x11e;" horiz-adv-x="778" 
d="M709 0h-59l-23 96q-102 -114 -249 -114q-148 0 -241 103.5t-93 271.5q0 169 93.5 279.5t256.5 110.5q125 0 205 -63.5t100 -175.5h-95q-15 71 -72 114t-139 43q-115 0 -185.5 -84t-70.5 -219t69.5 -216.5t191.5 -81.5q100 0 164.5 61t64.5 158v20h-222v82h304v-385z
M574 911q-12 -122 -182 -122q-81 0 -129.5 30t-49.5 92h71q4 -29 30 -39.5t80 -10.5q104 0 109 50h71z" />
    <glyph glyph-name="gbreve" unicode="&#x11f;" 
d="M489 86q0 -170 -54 -237t-180 -67q-92 0 -147 42t-62 116h85q14 -88 127 -88q76 0 115 45.5t39 146.5v35q-42 -50 -80 -72t-87 -22q-94 0 -155 75t-61 197q0 127 61.5 204.5t161.5 77.5q98 0 160 -91v76h77v-438zM404 259q0 95 -38 149t-105 54t-106 -53t-39 -147
q0 -95 38.5 -147.5t107.5 -52.5q66 0 104 52t38 145zM427 723q0 -57 -45 -96t-107 -39t-107 39t-45 96h54q12 -30 39 -48t59 -18t59 18t39 48h54z" />
    <glyph glyph-name="Gdotaccent" unicode="&#x120;" horiz-adv-x="778" 
d="M709 0h-59l-23 96q-102 -114 -249 -114q-148 0 -241 103.5t-93 271.5q0 169 93.5 279.5t256.5 110.5q125 0 205 -63.5t100 -175.5h-95q-15 71 -72 114t-139 43q-115 0 -185.5 -84t-70.5 -219t69.5 -216.5t191.5 -81.5q100 0 164.5 61t64.5 158v20h-222v82h304v-385z
M447 798h-104v104h104v-104z" />
    <glyph glyph-name="gdotaccent" unicode="&#x121;" 
d="M489 86q0 -170 -54 -237t-180 -67q-92 0 -147 42t-62 116h85q14 -88 127 -88q76 0 115 45.5t39 146.5v35q-42 -50 -80 -72t-87 -22q-94 0 -155 75t-61 197q0 127 61.5 204.5t161.5 77.5q98 0 160 -91v76h77v-438zM404 259q0 95 -38 149t-105 54t-106 -53t-39 -147
q0 -95 38.5 -147.5t107.5 -52.5q66 0 104 52t38 145zM330 603h-104v104h104v-104z" />
    <glyph glyph-name="Gcommaaccent" unicode="&#x122;" horiz-adv-x="778" 
d="M709 0h-59l-23 96q-102 -114 -249 -114q-148 0 -241 103.5t-93 271.5q0 169 93.5 279.5t256.5 110.5q125 0 205 -63.5t100 -175.5h-95q-15 71 -72 114t-139 43q-115 0 -185.5 -84t-70.5 -219t69.5 -216.5t191.5 -81.5q100 0 164.5 61t64.5 158v20h-222v82h304v-385z
M445 -163q0 -57 -26.5 -89t-73.5 -32v38q55 0 55 78v8h-55v100h100v-103z" />
    <glyph glyph-name="gcommaaccent" unicode="&#x123;" 
d="M329 577h-100v103q0 57 26.5 89t73.5 32v-38q-55 0 -55 -78v-8h55v-100zM489 86q0 -170 -54 -237t-180 -67q-92 0 -147 42t-62 116h85q14 -88 127 -88q76 0 115 45.5t39 146.5v35q-42 -50 -80 -72t-87 -22q-94 0 -155 75t-61 197q0 127 61.5 204.5t161.5 77.5
q98 0 160 -91v76h77v-438zM404 259q0 95 -38 149t-105 54t-106 -53t-39 -147q0 -95 38.5 -147.5t107.5 -52.5q66 0 104 52t38 145z" />
    <glyph glyph-name="Hcircumflex" unicode="&#x124;" horiz-adv-x="722" 
d="M644 0h-93v332h-375v-332h-93v729h93v-315h375v315h93v-729zM533 783h-75l-97 86l-95 -86h-77l115 135h114z" />
    <glyph glyph-name="hcircumflex" unicode="&#x125;" 
d="M486 0h-83v363q0 50 -30.5 76.5t-77.5 26.5q-64 0 -103 -48.5t-39 -128.5v-289h-83v729h83v-277q37 48 74.5 67.5t93.5 19.5q76 0 120.5 -38.5t44.5 -104.5v-396zM450 783h-75l-97 86l-95 -86h-77l115 135h114z" />
    <glyph glyph-name="Hbar" unicode="&#x126;" horiz-adv-x="722" 
d="M690 560h-46v-560h-93v332h-375v-332h-93v560h-46v46h46v123h93v-123h375v123h93v-123h46v-46zM551 414v146h-375v-146h375z" />
    <glyph glyph-name="hbar" unicode="&#x127;" horiz-adv-x="593" 
d="M525 0h-83v363q0 50 -30.5 76.5t-77.5 26.5q-64 0 -103 -48.5t-39 -128.5v-289h-83v516l-41 -17v50l41 17v163h83v-129l125 51v-49l-125 -52v-98q37 48 74.5 67.5t93.5 19.5q76 0 120.5 -38.5t44.5 -104.5v-396z" />
    <glyph glyph-name="Itilde" unicode="&#x128;" horiz-adv-x="278" 
d="M193 0h-93v729h93v-729zM300 902q-15 -104 -89 -104q-21 0 -85 25q-35 13 -49 13q-23 0 -33 -37h-58q8 49 30.5 76t55.5 27q23 0 70 -19q41 -18 63 -18q25 0 37 37h58z" />
    <glyph glyph-name="itilde" unicode="&#x129;" horiz-adv-x="278" 
d="M181 0h-83v524h83v-524zM292 707q-15 -104 -89 -104q-21 0 -85 25q-35 13 -49 13q-23 0 -33 -37h-58q8 49 30.5 76t55.5 27q23 0 70 -19q41 -18 63 -18q25 0 37 37h58z" />
    <glyph glyph-name="Imacron" unicode="&#x12a;" horiz-adv-x="278" 
d="M193 0h-93v729h93v-729zM283 815h-274v70h274v-70z" />
    <glyph glyph-name="imacron" unicode="&#x12b;" horiz-adv-x="278" 
d="M181 0h-83v524h83v-524zM275 620h-274v70h274v-70z" />
    <glyph glyph-name="Ibreve" unicode="&#x12c;" horiz-adv-x="278" 
d="M193 0h-93v729h93v-729zM327 911q-12 -122 -182 -122q-81 0 -129.5 30t-49.5 92h71q4 -29 30 -39.5t80 -10.5q104 0 109 50h71z" />
    <glyph glyph-name="ibreve" unicode="&#x12d;" horiz-adv-x="278" 
d="M181 0h-83v524h83v-524zM289 723q0 -57 -45 -96t-107 -39t-107 39t-45 96h54q12 -30 39 -48t59 -18t59 18t39 48h54z" />
    <glyph glyph-name="Iogonek" unicode="&#x12e;" horiz-adv-x="278" 
d="M213 -230h-50q-49 0 -85.5 26t-36.5 71q0 72 79 133h-20v729h93v-729q-36 -15 -58 -49q-16 -23 -16 -59q0 -44 44 -44h50v-78z" />
    <glyph glyph-name="iogonek" unicode="&#x12f;" horiz-adv-x="278" 
d="M211 -230h-50q-49 0 -85.5 26t-36.5 71q0 72 79 133h-20v524h83v-524q-32 -22 -48 -49q-16 -23 -16 -59q0 -44 44 -44h50v-78zM191 603h-104v104h104v-104z" />
    <glyph glyph-name="Idotaccent" unicode="&#x130;" horiz-adv-x="278" 
d="M193 0h-93v729h93v-729zM200 798h-104v104h104v-104z" />
    <glyph glyph-name="dotlessi" unicode="&#x131;" horiz-adv-x="222" 
d="M153 0h-83v524h83v-524z" />
    <glyph glyph-name="Jcircumflex" unicode="&#x134;" horiz-adv-x="500" 
d="M426 187q0 -95 -55.5 -150t-150.5 -55t-148 52t-53 141v59h93v-42q0 -64 28 -98t81 -34q56 0 84 37t28 124v508h93v-542zM552 783h-75l-97 86l-95 -86h-77l115 135h114z" />
    <glyph glyph-name="jcircumflex" unicode="&#x135;" horiz-adv-x="222" 
d="M153 -109q0 -109 -143 -109q-13 0 -28 3v71l20 -1q37 -2 52.5 14.5t15.5 54.5v600h83v-633zM255 580h-63l-81 96l-79 -96h-64l96 150h95z" />
    <glyph glyph-name="Kcommaaccent" unicode="&#x136;" horiz-adv-x="667" 
d="M658 0h-110l-257 374l-119 -119v-255h-93v729h93v-369l363 369h120l-297 -297zM409 -163q0 -57 -26.5 -89t-73.5 -32v38q55 0 55 78v8h-55v100h100v-103z" />
    <glyph glyph-name="kcommaaccent" unicode="&#x137;" horiz-adv-x="500" 
d="M502 0h-103l-177 284l-81 -80v-204h-83v729h83v-427l222 222h107l-182 -181zM301 -163q0 -57 -26.5 -89t-73.5 -32v38q55 0 55 78v8h-55v100h100v-103z" />
    <glyph glyph-name="Lacute" unicode="&#x139;" 
d="M533 0h-453v729h93v-647h360v-82zM332 916l-179 -133h-72l115 133h136z" />
    <glyph glyph-name="lacute" unicode="&#x13a;" horiz-adv-x="222" 
d="M151 0h-83v729h83v-729zM320 916l-179 -133h-72l115 133h136z" />
    <glyph glyph-name="Lcommaaccent" unicode="&#x13b;" 
d="M533 0h-453v729h93v-647h360v-82zM358 -163q0 -57 -26.5 -89t-73.5 -32v38q55 0 55 78v8h-55v100h100v-103z" />
    <glyph glyph-name="lcommaaccent" unicode="&#x13c;" horiz-adv-x="222" 
d="M151 0h-83v729h83v-729zM162 -163q0 -57 -26.5 -89t-73.5 -32v38q55 0 55 78v8h-55v100h100v-103z" />
    <glyph glyph-name="Lcaron" unicode="&#x13d;" 
d="M533 0h-453v729h93v-647h360v-82zM341 626q0 -57 -26.5 -89t-73.5 -32v38q55 0 55 78v8h-55v100h100v-103z" />
    <glyph glyph-name="lcaron" unicode="&#x13e;" horiz-adv-x="222" 
d="M151 0h-83v729h83v-729zM319 626q0 -57 -26.5 -89t-73.5 -32v38q55 0 55 78v8h-55v100h100v-103z" />
    <glyph glyph-name="Ldot" unicode="&#x13f;" 
d="M533 0h-453v729h93v-647h360v-82zM457 328h-104v104h104v-104z" />
    <glyph glyph-name="ldot" unicode="&#x140;" horiz-adv-x="322" 
d="M151 0h-83v729h83v-729zM323 328h-104v104h104v-104z" />
    <glyph glyph-name="Lslash" unicode="&#x141;" horiz-adv-x="628" 
d="M575 0h-453v240l-65 -64v96l65 64v393h93v-310l125 124v-96l-125 -124v-241h360v-82z" />
    <glyph glyph-name="lslash" unicode="&#x142;" horiz-adv-x="305" 
d="M259 468l-66 -80v-388h-83v298l-62 -75v93l62 75v338h83v-249l66 80v-92z" />
    <glyph glyph-name="Nacute" unicode="&#x143;" horiz-adv-x="722" 
d="M646 0h-105l-377 591v-591h-88v729h101l381 -596v596h88v-729zM576 916l-179 -133h-72l115 133h136z" />
    <glyph glyph-name="nacute" unicode="&#x144;" 
d="M487 0h-83v363q0 47 -29 75t-79 28q-64 0 -103.5 -48.5t-39.5 -128.5v-289h-83v524h77v-88q35 55 75.5 79t98.5 24q76 0 121 -39t45 -104v-396zM457 729l-149 -148h-60l96 148h113z" />
    <glyph glyph-name="Ncommaaccent" unicode="&#x145;" horiz-adv-x="722" 
d="M646 0h-105l-377 591v-591h-88v729h101l381 -596v596h88v-729zM412 -163q0 -57 -26.5 -89t-73.5 -32v38q55 0 55 78v8h-55v100h100v-103z" />
    <glyph glyph-name="ncommaaccent" unicode="&#x146;" 
d="M487 0h-83v363q0 47 -29 75t-79 28q-64 0 -103.5 -48.5t-39.5 -128.5v-289h-83v524h77v-88q35 55 75.5 79t98.5 24q76 0 121 -39t45 -104v-396zM329 -163q0 -57 -26.5 -89t-73.5 -32v38q55 0 55 78v8h-55v100h100v-103z" />
    <glyph glyph-name="Ncaron" unicode="&#x147;" horiz-adv-x="722" 
d="M646 0h-105l-377 591v-591h-88v729h101l381 -596v596h88v-729zM534 918l-115 -135h-114l-115 135h75l97 -86l95 86h77z" />
    <glyph glyph-name="ncaron" unicode="&#x148;" 
d="M487 0h-83v363q0 47 -29 75t-79 28q-64 0 -103.5 -48.5t-39.5 -128.5v-289h-83v524h77v-88q35 55 75.5 79t98.5 24q76 0 121 -39t45 -104v-396zM421 730l-96 -150h-95l-96 150h63l81 -96l79 96h64z" />
    <glyph glyph-name="Eng" unicode="&#x14a;" horiz-adv-x="722" 
d="M646 -48q0 -95 -55.5 -150t-150.5 -55t-148 52t-53 141l93 17q0 -64 28 -98t81 -34q51 0 84 44.5t33 103.5l-394 618v-591h-88v729h101l381 -596v596h88v-777z" />
    <glyph glyph-name="eng" unicode="&#x14b;" 
d="M487 -109q0 -109 -143 -109q-13 0 -28 3v71l20 -1q37 -2 52.5 14.5t15.5 54.5v439q0 47 -29 75t-79 28q-64 0 -103.5 -48.5t-39.5 -128.5v-289h-83v524h77v-88q35 55 75.5 79t98.5 24q76 0 121 -39t45 -104v-505z" />
    <glyph glyph-name="Omacron" unicode="&#x14c;" horiz-adv-x="778" 
d="M742 353q0 -163 -96.5 -267t-255.5 -104q-158 0 -255 103.5t-97 273.5q0 172 97.5 280t253.5 108q160 0 256.5 -108.5t96.5 -285.5zM649 355q0 139 -71 224.5t-189 85.5q-115 0 -186.5 -85.5t-71.5 -220.5q0 -134 71 -214.5t188 -80.5q116 0 187.5 80t71.5 211zM525 815
h-274v70h274v-70z" />
    <glyph glyph-name="omacron" unicode="&#x14d;" 
d="M510 258q0 -129 -63 -201t-174 -72q-112 0 -174.5 72.5t-62.5 204.5q0 131 62.5 204t173.5 73q114 0 176 -73t62 -208zM423 259q0 97 -39.5 150t-110.5 53q-70 0 -110 -53t-40 -147q0 -95 40 -147.5t110 -52.5q69 0 109.5 52.5t40.5 144.5zM413 620h-274v70h274v-70z" />
    <glyph glyph-name="Obreve" unicode="&#x14e;" horiz-adv-x="778" 
d="M742 353q0 -163 -96.5 -267t-255.5 -104q-158 0 -255 103.5t-97 273.5q0 172 97.5 280t253.5 108q160 0 256.5 -108.5t96.5 -285.5zM649 355q0 139 -71 224.5t-189 85.5q-115 0 -186.5 -85.5t-71.5 -220.5q0 -134 71 -214.5t188 -80.5q116 0 187.5 80t71.5 211zM569 911
q-12 -122 -182 -122q-81 0 -129.5 30t-49.5 92h71q4 -29 30 -39.5t80 -10.5q104 0 109 50h71z" />
    <glyph glyph-name="obreve" unicode="&#x14f;" 
d="M510 258q0 -129 -63 -201t-174 -72q-112 0 -174.5 72.5t-62.5 204.5q0 131 62.5 204t173.5 73q114 0 176 -73t62 -208zM423 259q0 97 -39.5 150t-110.5 53q-70 0 -110 -53t-40 -147q0 -95 40 -147.5t110 -52.5q69 0 109.5 52.5t40.5 144.5zM427 723q0 -57 -45 -96
t-107 -39t-107 39t-45 96h54q12 -30 39 -48t59 -18t59 18t39 48h54z" />
    <glyph glyph-name="Ohungarumlaut" unicode="&#x150;" horiz-adv-x="778" 
d="M742 353q0 -163 -96.5 -267t-255.5 -104q-158 0 -255 103.5t-97 273.5q0 172 97.5 280t253.5 108q160 0 256.5 -108.5t96.5 -285.5zM649 355q0 139 -71 224.5t-189 85.5q-115 0 -186.5 -85.5t-71.5 -220.5q0 -134 71 -214.5t188 -80.5q116 0 187.5 80t71.5 211zM476 935
l-149 -150h-60l96 150h113zM640 935l-149 -150h-60l96 150h113z" />
    <glyph glyph-name="ohungarumlaut" unicode="&#x151;" 
d="M510 258q0 -129 -63 -201t-174 -72q-112 0 -174.5 72.5t-62.5 204.5q0 131 62.5 204t173.5 73q114 0 176 -73t62 -208zM423 259q0 97 -39.5 150t-110.5 53q-70 0 -110 -53t-40 -147q0 -95 40 -147.5t110 -52.5q69 0 109.5 52.5t40.5 144.5zM365 730l-149 -150h-60l96 150
h113zM529 730l-149 -150h-60l96 150h113z" />
    <glyph glyph-name="OE" unicode="&#x152;" horiz-adv-x="1000" 
d="M959 0h-434v79q-67 -94 -184 -94q-139 0 -218.5 98.5t-79.5 272.5q0 178 80.5 281.5t218.5 103.5q121 0 183 -88v76h429v-82h-336v-238h328v-82h-328v-245h341v-82zM525 187v352q-59 120 -183 120q-102 0 -154 -76t-52 -223q0 -144 52 -218.5t153 -74.5q125 0 184 120z
" />
    <glyph glyph-name="oe" unicode="&#x153;" horiz-adv-x="944" 
d="M899 234h-386q1 -82 44 -127t110 -45q100 0 137 97h84q-16 -80 -75 -127t-148 -47q-132 0 -194 103q-63 -103 -194 -103q-113 0 -175 72.5t-62 201.5q0 134 62 207t175 73q135 0 196 -106q31 50 81.5 78t111.5 28q74 0 130.5 -37t81.5 -101q21 -55 21 -167zM427 256
q0 97 -40 151.5t-110 54.5t-110 -54.5t-40 -148.5q0 -90 40.5 -143.5t109.5 -53.5t109.5 53t40.5 141zM809 302q0 71 -40 115.5t-104 44.5q-63 0 -104 -43.5t-46 -116.5h294z" />
    <glyph glyph-name="Racute" unicode="&#x154;" horiz-adv-x="722" 
d="M679 0h-113q-22 52 -21 119l1 65q1 67 -28.5 98.5t-91.5 31.5h-240v-314h-93v729h336q107 0 164.5 -50.5t57.5 -144.5q0 -62 -27 -103t-88 -71q59 -25 78 -62.5t21 -127.5q1 -73 9.5 -101t34.5 -46v-23zM554 521q0 63 -33.5 94.5t-109.5 31.5h-225v-251h225
q74 0 108.5 30t34.5 95zM576 916l-179 -133h-72l115 133h136z" />
    <glyph glyph-name="racute" unicode="&#x155;" horiz-adv-x="333" 
d="M321 451q-94 -1 -131 -44t-37 -135v-272h-83v524h76v-95q36 59 69.5 84.5t73.5 25.5q11 0 32 -3v-85zM332 729l-149 -148h-60l96 148h113z" />
    <glyph glyph-name="Rcommaaccent" unicode="&#x156;" horiz-adv-x="722" 
d="M679 0h-113q-22 52 -21 119l1 65q1 67 -28.5 98.5t-91.5 31.5h-240v-314h-93v729h336q107 0 164.5 -50.5t57.5 -144.5q0 -62 -27 -103t-88 -71q59 -25 78 -62.5t21 -127.5q1 -73 9.5 -101t34.5 -46v-23zM554 521q0 63 -33.5 94.5t-109.5 31.5h-225v-251h225
q74 0 108.5 30t34.5 95zM412 -163q0 -57 -26.5 -89t-73.5 -32v38q55 0 55 78v8h-55v100h100v-103z" />
    <glyph glyph-name="rcommaaccent" unicode="&#x157;" horiz-adv-x="333" 
d="M321 451q-94 -1 -131 -44t-37 -135v-272h-83v524h76v-95q36 59 69.5 84.5t73.5 25.5q11 0 32 -3v-85zM163 -163q0 -57 -26.5 -89t-73.5 -32v38q55 0 55 78v8h-55v100h100v-103z" />
    <glyph glyph-name="Rcaron" unicode="&#x158;" horiz-adv-x="722" 
d="M679 0h-113q-22 52 -21 119l1 65q1 67 -28.5 98.5t-91.5 31.5h-240v-314h-93v729h336q107 0 164.5 -50.5t57.5 -144.5q0 -62 -27 -103t-88 -71q59 -25 78 -62.5t21 -127.5q1 -73 9.5 -101t34.5 -46v-23zM554 521q0 63 -33.5 94.5t-109.5 31.5h-225v-251h225
q74 0 108.5 30t34.5 95zM534 918l-115 -135h-114l-115 135h75l97 -86l95 86h77z" />
    <glyph glyph-name="rcaron" unicode="&#x159;" horiz-adv-x="333" 
d="M321 451q-94 -1 -131 -44t-37 -135v-272h-83v524h76v-95q36 59 69.5 84.5t73.5 25.5q11 0 32 -3v-85zM296 730l-96 -150h-95l-96 150h63l81 -96l79 96h64z" />
    <glyph glyph-name="Sacute" unicode="&#x15a;" horiz-adv-x="667" 
d="M621 200q0 -100 -74.5 -159t-210.5 -59q-133 0 -210.5 65t-77.5 190h88q0 -80 52.5 -126.5t153.5 -46.5q186 0 186 127q0 83 -134 118l-181 48q-143 37 -143 170q0 100 70 160t189 60q126 0 196.5 -59.5t70.5 -166.5h-88q0 71 -47.5 109.5t-134.5 38.5q-73 0 -118 -36.5
t-45 -92.5q0 -42 27 -66.5t93 -41.5l183 -49q74 -20 114.5 -68t40.5 -115zM549 916l-179 -133h-72l115 133h136z" />
    <glyph glyph-name="sacute" unicode="&#x15b;" horiz-adv-x="500" 
d="M459 147q0 -75 -58.5 -118.5t-157.5 -43.5q-103 0 -154.5 42.5t-54.5 132.5h88q8 -57 38 -77.5t90 -20.5q55 0 88.5 21t33.5 57q0 28 -18.5 43t-62.5 26l-78 19q-93 22 -129.5 55.5t-36.5 95.5q0 73 55 116.5t146 43.5t140 -42t50 -119h-88q-3 84 -105 84
q-51 0 -81 -21.5t-30 -57.5q0 -28 23 -45.5t74 -29.5l80 -19q79 -19 113.5 -51.5t34.5 -90.5zM429 729l-149 -148h-60l96 148h113z" />
    <glyph glyph-name="Scircumflex" unicode="&#x15c;" horiz-adv-x="667" 
d="M621 200q0 -100 -74.5 -159t-210.5 -59q-133 0 -210.5 65t-77.5 190h88q0 -80 52.5 -126.5t153.5 -46.5q186 0 186 127q0 83 -134 118l-181 48q-143 37 -143 170q0 100 70 160t189 60q126 0 196.5 -59.5t70.5 -166.5h-88q0 71 -47.5 109.5t-134.5 38.5q-73 0 -118 -36.5
t-45 -92.5q0 -42 27 -66.5t93 -41.5l183 -49q74 -20 114.5 -68t40.5 -115zM506 783h-75l-97 86l-95 -86h-77l115 135h114z" />
    <glyph glyph-name="scircumflex" unicode="&#x15d;" horiz-adv-x="500" 
d="M459 147q0 -75 -58.5 -118.5t-157.5 -43.5q-103 0 -154.5 42.5t-54.5 132.5h88q8 -57 38 -77.5t90 -20.5q55 0 88.5 21t33.5 57q0 28 -18.5 43t-62.5 26l-78 19q-93 22 -129.5 55.5t-36.5 95.5q0 73 55 116.5t146 43.5t140 -42t50 -119h-88q-3 84 -105 84
q-51 0 -81 -21.5t-30 -57.5q0 -28 23 -45.5t74 -29.5l80 -19q79 -19 113.5 -51.5t34.5 -90.5zM393 580h-63l-81 96l-79 -96h-64l96 150h95z" />
    <glyph glyph-name="Scedilla" unicode="&#x15e;" horiz-adv-x="667" 
d="M621 200q0 -94 -67 -152.5t-190 -64.5l-14 -37h23q36 0 57.5 -24.5t21.5 -58.5q0 -43 -33 -68t-90 -25q-47 0 -125 34l21 40l9 -4q58 -29 89 -29q23 0 38.5 13t15.5 32q0 18 -12.5 31t-33.5 13q-14 0 -31 -4l-17 12l32 74q-124 5 -195.5 70t-71.5 185h88
q0 -80 52.5 -126.5t153.5 -46.5q186 0 186 127q0 83 -134 118l-181 48q-143 37 -143 170q0 100 70 160t189 60q126 0 196.5 -59.5t70.5 -166.5h-88q0 71 -47.5 109.5t-134.5 38.5q-73 0 -118 -36.5t-45 -92.5q0 -42 27 -66.5t93 -41.5l183 -49q74 -20 114.5 -68t40.5 -115z
" />
    <glyph glyph-name="scedilla" unicode="&#x15f;" horiz-adv-x="500" 
d="M459 147q0 -70 -50 -112.5t-138 -48.5l-16 -40h23q36 0 57.5 -24.5t21.5 -58.5q0 -43 -33 -68t-90 -25q-47 0 -125 34l21 40l9 -4q58 -29 89 -29q23 0 38.5 13t15.5 32q0 18 -12.5 31t-33.5 13q-14 0 -31 -4l-17 12l34 77q-93 5 -139 47t-49 128h88q8 -57 38 -77.5
t90 -20.5q55 0 88.5 21t33.5 57q0 28 -18.5 43t-62.5 26l-78 19q-93 22 -129.5 55.5t-36.5 95.5q0 73 55 116.5t146 43.5t140 -42t50 -119h-88q-3 84 -105 84q-51 0 -81 -21.5t-30 -57.5q0 -28 23 -45.5t74 -29.5l80 -19q79 -19 113.5 -51.5t34.5 -90.5z" />
    <glyph glyph-name="Scaron" unicode="&#x160;" horiz-adv-x="667" 
d="M621 200q0 -100 -74.5 -159t-210.5 -59q-133 0 -210.5 65t-77.5 190h88q0 -80 52.5 -126.5t153.5 -46.5q186 0 186 127q0 83 -134 118l-181 48q-143 37 -143 170q0 100 70 160t189 60q126 0 196.5 -59.5t70.5 -166.5h-88q0 71 -47.5 109.5t-134.5 38.5q-73 0 -118 -36.5
t-45 -92.5q0 -42 27 -66.5t93 -41.5l183 -49q74 -20 114.5 -68t40.5 -115zM507 918l-115 -135h-114l-115 135h75l97 -86l95 86h77z" />
    <glyph glyph-name="scaron" unicode="&#x161;" horiz-adv-x="500" 
d="M459 147q0 -75 -58.5 -118.5t-157.5 -43.5q-103 0 -154.5 42.5t-54.5 132.5h88q8 -57 38 -77.5t90 -20.5q55 0 88.5 21t33.5 57q0 28 -18.5 43t-62.5 26l-78 19q-93 22 -129.5 55.5t-36.5 95.5q0 73 55 116.5t146 43.5t140 -42t50 -119h-88q-3 84 -105 84
q-51 0 -81 -21.5t-30 -57.5q0 -28 23 -45.5t74 -29.5l80 -19q79 -19 113.5 -51.5t34.5 -90.5zM393 730l-96 -150h-95l-96 150h63l81 -96l79 96h64z" />
    <glyph glyph-name="Tcedilla" unicode="&#x162;" horiz-adv-x="611" 
d="M593 647h-239v-647h-28l-21 -54h23q36 0 57.5 -24.5t21.5 -58.5q0 -43 -33 -68t-90 -25q-47 0 -125 34l21 40l9 -4q58 -29 89 -29q23 0 38.5 13t15.5 32q0 18 -12.5 31t-33.5 13q-14 0 -31 -4l-17 12l40 92h-17v647h-240v82h572v-82z" />
    <glyph glyph-name="tcedilla" unicode="&#x163;" horiz-adv-x="278" 
d="M267 -137q0 -43 -33 -68t-90 -25q-47 0 -125 34l21 40l9 -4q58 -29 89 -29q23 0 38.5 13t15.5 32q0 18 -12.5 31t-33.5 13q-14 0 -31 -4l-17 12l40 92q-53 18 -53 76v380h-71v68h71v144h83v-144h86v-68h-86v-343q0 -28 9.5 -37.5t36.5 -9.5q25 0 40 4v-70q-39 -7 -68 -7
h-3l-18 -47h23q36 0 57.5 -24.5t21.5 -58.5z" />
    <glyph glyph-name="Tcaron" unicode="&#x164;" horiz-adv-x="611" 
d="M593 647h-239v-647h-93v647h-240v82h572v-82zM481 918l-115 -135h-114l-115 135h75l97 -86l95 86h77z" />
    <glyph glyph-name="tcaron" unicode="&#x165;" horiz-adv-x="278" 
d="M254 0q-39 -7 -68 -7q-49 0 -75 21.5t-26 61.5v380h-71v68h71v144h83v-144h86v-68h-86v-343q0 -28 9.5 -37.5t36.5 -9.5q25 0 40 4v-70zM302 679q0 -57 -26.5 -89t-73.5 -32v38q55 0 55 78v8h-55v100h100v-103z" />
    <glyph glyph-name="Utilde" unicode="&#x168;" horiz-adv-x="722" 
d="M645 222q0 -110 -76.5 -175t-204.5 -65q-130 0 -204.5 64.5t-74.5 175.5v507h93v-507q0 -77 50.5 -117.5t135.5 -40.5q88 0 138 42t50 116v507h93v-507zM514 902q-15 -104 -89 -104q-21 0 -85 25q-35 13 -49 13q-23 0 -33 -37h-58q8 49 30.5 76t55.5 27q23 0 70 -19
q41 -18 63 -18q25 0 37 37h58z" />
    <glyph glyph-name="utilde" unicode="&#x169;" 
d="M482 0h-75v81q-37 -52 -77 -74t-98 -22q-76 0 -121.5 39t-45.5 104v396h83v-363q0 -47 29 -75t79 -28q65 0 104 48.5t39 128.5v289h83v-524zM430 707q-15 -104 -89 -104q-21 0 -85 25q-35 13 -49 13q-23 0 -33 -37h-58q8 49 30.5 76t55.5 27q23 0 70 -19q41 -18 63 -18
q25 0 37 37h58z" />
    <glyph glyph-name="Umacron" unicode="&#x16a;" horiz-adv-x="722" 
d="M645 222q0 -110 -76.5 -175t-204.5 -65q-130 0 -204.5 64.5t-74.5 175.5v507h93v-507q0 -77 50.5 -117.5t135.5 -40.5q88 0 138 42t50 116v507h93v-507zM497 815h-274v70h274v-70z" />
    <glyph glyph-name="umacron" unicode="&#x16b;" 
d="M482 0h-75v81q-37 -52 -77 -74t-98 -22q-76 0 -121.5 39t-45.5 104v396h83v-363q0 -47 29 -75t79 -28q65 0 104 48.5t39 128.5v289h83v-524zM413 620h-274v70h274v-70z" />
    <glyph glyph-name="Ubreve" unicode="&#x16c;" horiz-adv-x="722" 
d="M645 222q0 -110 -76.5 -175t-204.5 -65q-130 0 -204.5 64.5t-74.5 175.5v507h93v-507q0 -77 50.5 -117.5t135.5 -40.5q88 0 138 42t50 116v507h93v-507zM541 911q-12 -122 -182 -122q-81 0 -129.5 30t-49.5 92h71q4 -29 30 -39.5t80 -10.5q104 0 109 50h71z" />
    <glyph glyph-name="ubreve" unicode="&#x16d;" 
d="M482 0h-75v81q-37 -52 -77 -74t-98 -22q-76 0 -121.5 39t-45.5 104v396h83v-363q0 -47 29 -75t79 -28q65 0 104 48.5t39 128.5v289h83v-524zM427 723q0 -57 -45 -96t-107 -39t-107 39t-45 96h54q12 -30 39 -48t59 -18t59 18t39 48h54z" />
    <glyph glyph-name="Uring" unicode="&#x16e;" horiz-adv-x="722" 
d="M645 222q0 -110 -76.5 -175t-204.5 -65q-130 0 -204.5 64.5t-74.5 175.5v507h93v-507q0 -77 50.5 -117.5t135.5 -40.5q88 0 138 42t50 116v507h93v-507zM458 864q0 -39 -28.5 -67t-67.5 -28q-40 0 -68.5 28.5t-28.5 68.5q0 38 28.5 66.5t68.5 28.5t68 -28.5t28 -68.5z
M410 864q0 21 -14 35t-34 14t-34.5 -14t-14.5 -33q0 -20 14.5 -34.5t34.5 -14.5q19 0 33.5 14t14.5 33z" />
    <glyph glyph-name="uring" unicode="&#x16f;" 
d="M482 0h-75v81q-37 -52 -77 -74t-98 -22q-76 0 -121.5 39t-45.5 104v396h83v-363q0 -47 29 -75t79 -28q65 0 104 48.5t39 128.5v289h83v-524zM374 654q0 -39 -28.5 -67t-67.5 -28q-40 0 -68.5 28.5t-28.5 68.5q0 38 28.5 66.5t68.5 28.5t68 -28.5t28 -68.5zM326 654
q0 21 -14 35t-34 14t-34.5 -14t-14.5 -33q0 -20 14.5 -34.5t34.5 -14.5q19 0 33.5 14t14.5 33z" />
    <glyph glyph-name="Uhungarumlaut" unicode="&#x170;" horiz-adv-x="722" 
d="M645 222q0 -110 -76.5 -175t-204.5 -65q-130 0 -204.5 64.5t-74.5 175.5v507h93v-507q0 -77 50.5 -117.5t135.5 -40.5q88 0 138 42t50 116v507h93v-507zM448 935l-149 -150h-60l96 150h113zM612 935l-149 -150h-60l96 150h113z" />
    <glyph glyph-name="uhungarumlaut" unicode="&#x171;" 
d="M482 0h-75v81q-37 -52 -77 -74t-98 -22q-76 0 -121.5 39t-45.5 104v396h83v-363q0 -47 29 -75t79 -28q65 0 104 48.5t39 128.5v289h83v-524zM365 730l-149 -150h-60l96 150h113zM529 730l-149 -150h-60l96 150h113z" />
    <glyph glyph-name="Uogonek" unicode="&#x172;" horiz-adv-x="722" 
d="M645 222q0 -81 -43.5 -139.5t-121.5 -83.5q-38 -13 -63.5 -41.5t-25.5 -65.5q0 -44 44 -44h50v-78h-50q-49 0 -85.5 26t-36.5 71q0 63 57 115h-6q-130 0 -204.5 64.5t-74.5 175.5v507h93v-507q0 -77 50.5 -117.5t135.5 -40.5q88 0 138 42t50 116v507h93v-507z" />
    <glyph glyph-name="uogonek" unicode="&#x173;" 
d="M492 -230h-50q-49 0 -85.5 26t-36.5 71q0 39 20 71q24 41 67 62v81q-37 -52 -77 -74t-98 -22q-76 0 -121.5 39t-45.5 104v396h83v-363q0 -47 29 -75t79 -28q65 0 104 48.5t39 128.5v289h83v-524q-45 -11 -68 -49q-16 -23 -16 -59q0 -44 44 -44h50v-78z" />
    <glyph glyph-name="Wcircumflex" unicode="&#x174;" horiz-adv-x="944" 
d="M929 729l-185 -729h-102l-168 599l-163 -599h-102l-187 729h104l137 -592l162 592h100l166 -592l134 592h104zM644 783h-75l-97 86l-95 -86h-77l115 135h114z" />
    <glyph glyph-name="wcircumflex" unicode="&#x175;" horiz-adv-x="722" 
d="M708 524l-154 -524h-95l-106 411l-101 -411h-94l-152 524h92l107 -408l100 408h102l103 -408l104 408h94zM504 580h-63l-81 96l-79 -96h-64l96 150h95z" />
    <glyph glyph-name="Ycircumflex" unicode="&#x176;" horiz-adv-x="667" 
d="M661 729l-274 -443v-286h-93v286l-281 443h115l214 -355l208 355h111zM513 783h-75l-97 86l-95 -86h-77l115 135h114z" />
    <glyph glyph-name="ycircumflex" unicode="&#x177;" horiz-adv-x="500" 
d="M478 524l-233 -634q-40 -108 -135 -108q-31 0 -56 13v75q27 -6 44 -6q27 0 41.5 11.5t25.5 39.5l32 83l-177 526h89l134 -408l145 408h90zM393 580h-63l-81 96l-79 -96h-64l96 150h95z" />
    <glyph glyph-name="Ydieresis" unicode="&#x178;" horiz-adv-x="667" 
d="M661 729l-274 -443v-286h-93v286l-281 443h115l214 -355l208 355h111zM306 799h-91v102h91v-102zM468 799h-91v102h91v-102z" />
    <glyph glyph-name="Zacute" unicode="&#x179;" horiz-adv-x="611" 
d="M583 0h-555v82l438 565h-410v82h525v-84l-436 -563h438v-82zM534 916l-179 -133h-72l115 133h136z" />
    <glyph glyph-name="zacute" unicode="&#x17a;" horiz-adv-x="500" 
d="M457 0h-426v75l313 376h-292v73h391v-74l-311 -377h325v-73zM429 729l-149 -148h-60l96 148h113z" />
    <glyph glyph-name="Zdotaccent" unicode="&#x17b;" horiz-adv-x="611" 
d="M583 0h-555v82l438 565h-410v82h525v-84l-436 -563h438v-82zM372 798h-104v104h104v-104z" />
    <glyph glyph-name="zdotaccent" unicode="&#x17c;" horiz-adv-x="500" 
d="M457 0h-426v75l313 376h-292v73h391v-74l-311 -377h325v-73zM302 603h-104v104h104v-104z" />
    <glyph glyph-name="Zcaron" unicode="&#x17d;" horiz-adv-x="611" 
d="M583 0h-555v82l438 565h-410v82h525v-84l-436 -563h438v-82zM492 918l-115 -135h-114l-115 135h75l97 -86l95 86h77z" />
    <glyph glyph-name="zcaron" unicode="&#x17e;" horiz-adv-x="500" 
d="M457 0h-426v75l313 376h-292v73h391v-74l-311 -377h325v-73zM393 730l-96 -150h-95l-96 150h63l81 -96l79 96h64z" />
    <glyph glyph-name="longs" unicode="&#x17f;" horiz-adv-x="278" 
d="M258 658q-19 1 -29 1q-58 0 -58 -53v-606h-83v613q0 56 32.5 87.5t90.5 31.5q23 0 47 -5v-69z" />
    <glyph glyph-name="Ereversed" unicode="&#x18e;" horiz-adv-x="667" 
d="M613 0h-523v82h430v250h-397v82h397v233h-412v82h505v-729z" />
    <glyph glyph-name="florin" unicode="&#x192;" 
d="M542 719l-30 -79q-32 18 -52 18q-72 0 -94 -126l-12 -70h113v-70h-126l-75 -397q-39 -207 -200 -207q-36 0 -55 10l17 84q25 -16 51 -16q74 0 96 113l78 413h-113v70h125l22 104q17 83 65 127.5t111 44.5q35 0 79 -19z" />
    <glyph glyph-name="Ohorn" unicode="&#x1a0;" horiz-adv-x="778" 
d="M742 357q0 -89 -33.5 -167t-92.5 -128q-91 -77 -226 -77q-158 0 -255 103.5t-97 274.5q0 170 97 274t254 104q163 0 258 -108q45 37 45 96h-48v104h93v-101q0 -85 -64 -132q69 -100 69 -243zM649 359q0 138 -70.5 219t-189.5 81q-116 0 -187 -81t-71 -215t71 -215
t188 -81q116 0 187.5 80t71.5 212z" />
    <glyph glyph-name="ohorn" unicode="&#x1a1;" horiz-adv-x="571" 
d="M559 527q0 -89 -71 -136q22 -61 22 -133q0 -129 -63 -201t-174 -72q-112 0 -174.5 72.5t-62.5 204.5q0 131 62.5 204t173.5 73q137 0 199 -110q43 37 43 95h-48v104h93v-101zM423 259q0 97 -39.5 150t-110.5 53q-70 0 -110 -53t-40 -147q0 -95 40 -147.5t110 -52.5
q69 0 109.5 52.5t40.5 144.5z" />
    <glyph glyph-name="Uhorn" unicode="&#x1af;" horiz-adv-x="781" 
d="M768 732q0 -69 -39.5 -109.5t-83.5 -50.5v-347q0 -110 -76.5 -175t-204.5 -65q-130 0 -204.5 64.5t-74.5 175.5v504h93v-504q0 -79 53 -120q53 -38 133 -38q88 0 138 42t50 116v504h93v-116q29 11 53.5 41.5t24.5 74.5h-48v104h93v-101z" />
    <glyph glyph-name="uhorn" unicode="&#x1b0;" horiz-adv-x="614" 
d="M603 528q0 -68 -38.5 -108.5t-82.5 -51.5v-368h-75v81q-37 -52 -77 -74t-98 -22q-76 0 -121.5 39t-45.5 104v396h83v-363q0 -47 29 -75t79 -28q65 0 104 48.5t39 128.5v289h83v-114q29 11 52.5 42t23.5 73h-48v104h93v-101z" />
    <glyph glyph-name="eturned" unicode="&#x1dd;" 
d="M513 265q0 -129 -65 -204.5t-175 -75.5q-74 0 -130.5 37t-81.5 101q-21 55 -21 163h386q-1 87 -43.5 131.5t-110.5 44.5q-105 0 -137 -97h-84q16 80 75.5 127t148.5 47q111 0 174.5 -72.5t63.5 -201.5zM424 218h-294l-1 -6q0 -62 42 -106t103 -44q63 0 104 43t46 113z
" />
    <glyph glyph-name="Gcaron" unicode="&#x1e6;" horiz-adv-x="778" 
d="M709 0h-59l-23 96q-102 -114 -249 -114q-148 0 -241 103.5t-93 271.5q0 169 93.5 279.5t256.5 110.5q125 0 205 -63.5t100 -175.5h-95q-15 71 -72 114t-139 43q-115 0 -185.5 -84t-70.5 -219t69.5 -216.5t191.5 -81.5q100 0 164.5 61t64.5 158v20h-222v82h304v-385z
M567 918l-115 -135h-114l-115 135h75l97 -86l95 86h77z" />
    <glyph glyph-name="gcaron" unicode="&#x1e7;" 
d="M489 86q0 -170 -54 -237t-180 -67q-92 0 -147 42t-62 116h85q14 -88 127 -88q76 0 115 45.5t39 146.5v35q-42 -50 -80 -72t-87 -22q-94 0 -155 75t-61 197q0 127 61.5 204.5t161.5 77.5q98 0 160 -91v76h77v-438zM404 259q0 95 -38 149t-105 54t-106 -53t-39 -147
q0 -95 38.5 -147.5t107.5 -52.5q66 0 104 52t38 145zM421 730l-96 -150h-95l-96 150h63l81 -96l79 96h64z" />
    <glyph glyph-name="Oogonek" unicode="&#x1ea;" horiz-adv-x="778" 
d="M742 353q0 -129 -62.5 -223.5t-170.5 -129.5q-41 -14 -68.5 -42.5t-27.5 -65.5q0 -44 44 -44h50v-78h-50q-49 0 -85.5 26t-36.5 71q0 63 57 115h-2q-158 0 -255 103.5t-97 273.5q0 172 97.5 280t253.5 108q160 0 256.5 -108.5t96.5 -285.5zM649 355q0 139 -71 224.5
t-189 85.5q-115 0 -186.5 -85.5t-71.5 -220.5q0 -134 71 -214.5t188 -80.5q116 0 187.5 80t71.5 211z" />
    <glyph glyph-name="oogonek" unicode="&#x1eb;" 
d="M510 258q0 -96 -36 -161.5t-102 -93.5q-32 -13 -51 -43.5t-19 -67.5q0 -44 44 -44h50v-78h-50q-49 0 -85.5 26t-36.5 71q0 65 61 118h-12q-112 0 -174.5 72.5t-62.5 204.5q0 131 62.5 204t173.5 73q114 0 176 -73t62 -208zM423 259q0 97 -39.5 150t-110.5 53
q-70 0 -110 -53t-40 -147q0 -95 40 -147.5t110 -52.5q69 0 109.5 52.5t40.5 144.5z" />
    <glyph glyph-name="Gacute" unicode="&#x1f4;" horiz-adv-x="778" 
d="M709 0h-59l-23 96q-102 -114 -249 -114q-148 0 -241 103.5t-93 271.5q0 169 93.5 279.5t256.5 110.5q125 0 205 -63.5t100 -175.5h-95q-15 71 -72 114t-139 43q-115 0 -185.5 -84t-70.5 -219t69.5 -216.5t191.5 -81.5q100 0 164.5 61t64.5 158v20h-222v82h304v-385z
M609 916l-179 -133h-72l115 133h136z" />
    <glyph glyph-name="gacute" unicode="&#x1f5;" 
d="M489 86q0 -170 -54 -237t-180 -67q-92 0 -147 42t-62 116h85q14 -88 127 -88q76 0 115 45.5t39 146.5v35q-42 -50 -80 -72t-87 -22q-94 0 -155 75t-61 197q0 127 61.5 204.5t161.5 77.5q98 0 160 -91v76h77v-438zM404 259q0 95 -38 149t-105 54t-106 -53t-39 -147
q0 -95 38.5 -147.5t107.5 -52.5q66 0 104 52t38 145zM457 729l-149 -148h-60l96 148h113z" />
    <glyph glyph-name="Aringacute" unicode="&#x1fa;" horiz-adv-x="667" 
d="M653 0h-104l-75 219h-281l-77 -219h-99l260 729h120zM448 297l-112 332l-120 -332h232zM552 1114l-179 -133h-72l115 133h136zM434 864q0 -39 -28.5 -67t-67.5 -28q-40 0 -68.5 28.5t-28.5 68.5q0 38 28.5 66.5t68.5 28.5t68 -28.5t28 -68.5zM386 864q0 21 -14 35t-34 14
t-34.5 -14t-14.5 -33q0 -20 14.5 -34.5t34.5 -14.5q19 0 33.5 14t14.5 33z" />
    <glyph glyph-name="aringacute" unicode="&#x1fb;" 
d="M535 2q-35 -9 -57 -9q-31 0 -55 19.5t-31 49.5q-72 -77 -178 -77q-80 0 -126 40t-46 111q0 98 92 136q25 10 53 15.5t115 16.5q49 6 68 19t19 39v22q0 38 -30.5 58t-86.5 20q-58 0 -88 -22.5t-35 -70.5h-84q7 170 210 170q97 0 147 -36.5t50 -106.5v-292q0 -41 45 -41
q9 0 18 2v-63zM389 181v78q-33 -15 -134 -29q-68 -10 -97 -30.5t-29 -61.5q0 -80 103 -80q63 0 110 34.5t47 88.5zM490 909l-179 -133h-72l115 133h136zM372 659q0 -39 -28.5 -67t-67.5 -28q-40 0 -68.5 28.5t-28.5 68.5q0 38 28.5 66.5t68.5 28.5t68 -28.5t28 -68.5z
M324 659q0 21 -14 35t-34 14t-34.5 -14t-14.5 -33q0 -20 14.5 -34.5t34.5 -14.5q19 0 33.5 14t14.5 33z" />
    <glyph glyph-name="AEacute" unicode="&#x1fc;" horiz-adv-x="1000" 
d="M950 0h-482v214h-269l-85 -214h-103l299 729h622v-82h-371v-233h352v-82h-352v-250h389v-82zM468 296v351h-100l-138 -351h238zM715 916l-179 -133h-72l115 133h136z" />
    <glyph glyph-name="aeacute" unicode="&#x1fd;" horiz-adv-x="889" 
d="M845 234h-386q1 -82 44 -127t110 -45q100 0 138 97h84q-16 -80 -75.5 -127t-147.5 -47q-58 0 -105 22t-73 61l-16 27q-56 -58 -106.5 -84t-109.5 -26q-77 0 -122.5 40.5t-45.5 110.5q0 82 54.5 118t205.5 49q51 4 69 17t18 42v22q0 78 -118 78q-112 0 -122 -93h-84
q7 170 208 170q128 0 175 -82q27 38 73 60t100 22q73 0 129 -37t82 -101q21 -55 21 -167zM381 165v93q-33 -14 -134 -29q-69 -10 -97.5 -30t-28.5 -61q0 -39 26.5 -59.5t73.5 -20.5q55 0 107.5 36.5t52.5 70.5zM755 302q0 71 -40 115.5t-104 44.5q-63 0 -104 -43.5
t-46 -116.5h294zM624 729l-149 -148h-60l96 148h113z" />
    <glyph glyph-name="Oslashacute" unicode="&#x1fe;" horiz-adv-x="778" 
d="M742 353q0 -163 -96.5 -267t-255.5 -104q-143 0 -236 84l-75 -82l-41 37l79 86q-79 99 -79 252q0 172 97.5 280t253.5 108q142 0 235 -87l77 85l41 -37l-81 -88q81 -106 81 -267zM649 355q0 117 -51 196l-384 -419q68 -68 176 -68q116 0 187.5 80t71.5 211zM564 595
q-68 70 -175 70q-115 0 -186.5 -85.5t-71.5 -220.5q0 -110 48 -184zM604 916l-179 -133h-72l115 133h136z" />
    <glyph glyph-name="oslashacute" unicode="&#x1ff;" 
d="M510 258q0 -129 -63 -201t-174 -72q-96 0 -156 54l-42 -49l-37 31l46 55q-48 73 -48 186q0 131 62.5 204t173.5 73q98 0 157 -54l42 49l37 -31l-46 -55q48 -73 48 -190zM423 259q0 70 -21 118l-230 -273q39 -42 101 -42q69 0 109.5 52.5t40.5 144.5zM374 420
q-38 42 -101 42q-70 0 -110 -53t-40 -147q0 -68 21 -115zM485 729l-149 -148h-60l96 148h113z" />
    <glyph glyph-name="Adblgrave" unicode="&#x200;" horiz-adv-x="667" 
d="M653 0h-104l-75 219h-281l-77 -219h-99l260 729h120zM448 297l-112 332l-120 -332h232zM459 785h-60l-149 150h113zM295 785h-60l-149 150h113z" />
    <glyph glyph-name="adblgrave" unicode="&#x201;" 
d="M535 2q-35 -9 -57 -9q-31 0 -55 19.5t-31 49.5q-72 -77 -178 -77q-80 0 -126 40t-46 111q0 98 92 136q25 10 53 15.5t115 16.5q49 6 68 19t19 39v22q0 38 -30.5 58t-86.5 20q-58 0 -88 -22.5t-35 -70.5h-84q7 170 210 170q97 0 147 -36.5t50 -106.5v-292q0 -41 45 -41
q9 0 18 2v-63zM389 181v78q-33 -15 -134 -29q-68 -10 -97 -30.5t-29 -61.5q0 -80 103 -80q63 0 110 34.5t47 88.5zM397 580h-60l-149 150h113zM233 580h-60l-149 150h113z" />
    <glyph glyph-name="Edblgrave" unicode="&#x204;" horiz-adv-x="667" 
d="M613 0h-523v729h505v-82h-412v-233h397v-82h-397v-250h430v-82zM465 785h-60l-149 150h113zM301 785h-60l-149 150h113z" />
    <glyph glyph-name="edblgrave" unicode="&#x205;" 
d="M513 238h-386q1 -87 43.5 -131.5t110.5 -44.5q105 0 137 97h84q-16 -80 -75.5 -127t-148.5 -47q-111 0 -174.5 72.5t-63.5 201.5t65 204.5t175 75.5q74 0 130.5 -37t81.5 -101q21 -55 21 -163zM424 312q0 62 -42 106t-103 44q-63 0 -104 -43t-46 -113h294zM402 580h-60
l-149 150h113zM238 580h-60l-149 150h113z" />
    <glyph glyph-name="Idblgrave" unicode="&#x208;" horiz-adv-x="278" 
d="M193 0h-93v729h93v-729zM269 785h-60l-149 150h113zM105 785h-60l-149 150h113z" />
    <glyph glyph-name="idblgrave" unicode="&#x209;" horiz-adv-x="278" 
d="M181 0h-83v524h83v-524zM262 580h-60l-149 150h113zM98 580h-60l-149 150h113z" />
    <glyph glyph-name="Odblgrave" unicode="&#x20c;" horiz-adv-x="778" 
d="M742 353q0 -163 -96.5 -267t-255.5 -104q-158 0 -255 103.5t-97 273.5q0 172 97.5 280t253.5 108q160 0 256.5 -108.5t96.5 -285.5zM649 355q0 139 -71 224.5t-189 85.5q-115 0 -186.5 -85.5t-71.5 -220.5q0 -134 71 -214.5t188 -80.5q116 0 187.5 80t71.5 211zM511 785
h-60l-149 150h113zM347 785h-60l-149 150h113z" />
    <glyph glyph-name="odblgrave" unicode="&#x20d;" 
d="M510 258q0 -129 -63 -201t-174 -72q-112 0 -174.5 72.5t-62.5 204.5q0 131 62.5 204t173.5 73q114 0 176 -73t62 -208zM423 259q0 97 -39.5 150t-110.5 53q-70 0 -110 -53t-40 -147q0 -95 40 -147.5t110 -52.5q69 0 109.5 52.5t40.5 144.5zM400 580h-60l-149 150h113z
M236 580h-60l-149 150h113z" />
    <glyph glyph-name="Rdblgrave" unicode="&#x210;" horiz-adv-x="722" 
d="M679 0h-113q-22 52 -21 119l1 65q1 67 -28.5 98.5t-91.5 31.5h-240v-314h-93v729h336q107 0 164.5 -50.5t57.5 -144.5q0 -62 -27 -103t-88 -71q59 -25 78 -62.5t21 -127.5q1 -73 9.5 -101t34.5 -46v-23zM554 521q0 63 -33.5 94.5t-109.5 31.5h-225v-251h225
q74 0 108.5 30t34.5 95zM483 785h-60l-149 150h113zM319 785h-60l-149 150h113z" />
    <glyph glyph-name="rdblgrave" unicode="&#x211;" horiz-adv-x="333" 
d="M321 451q-94 -1 -131 -44t-37 -135v-272h-83v524h76v-95q36 59 69.5 84.5t73.5 25.5q11 0 32 -3v-85zM275 580h-60l-149 150h113zM111 580h-60l-149 150h113z" />
    <glyph glyph-name="Udblgrave" unicode="&#x214;" horiz-adv-x="722" 
d="M645 222q0 -110 -76.5 -175t-204.5 -65q-130 0 -204.5 64.5t-74.5 175.5v507h93v-507q0 -77 50.5 -117.5t135.5 -40.5q88 0 138 42t50 116v507h93v-507zM483 785h-60l-149 150h113zM319 785h-60l-149 150h113z" />
    <glyph glyph-name="udblgrave" unicode="&#x215;" 
d="M482 0h-75v81q-37 -52 -77 -74t-98 -22q-76 0 -121.5 39t-45.5 104v396h83v-363q0 -47 29 -75t79 -28q65 0 104 48.5t39 128.5v289h83v-524zM400 580h-60l-149 150h113zM236 580h-60l-149 150h113z" />
    <glyph glyph-name="uni0218" unicode="&#x218;" horiz-adv-x="667" 
d="M621 200q0 -100 -74.5 -159t-210.5 -59q-133 0 -210.5 65t-77.5 190h88q0 -80 52.5 -126.5t153.5 -46.5q186 0 186 127q0 83 -134 118l-181 48q-143 37 -143 170q0 100 70 160t189 60q126 0 196.5 -59.5t70.5 -166.5h-88q0 71 -47.5 109.5t-134.5 38.5q-73 0 -118 -36.5
t-45 -92.5q0 -42 27 -66.5t93 -41.5l183 -49q74 -20 114.5 -68t40.5 -115zM385 -163q0 -57 -26.5 -89t-73.5 -32v38q55 0 55 78v8h-55v100h100v-103z" />
    <glyph glyph-name="uni0219" unicode="&#x219;" horiz-adv-x="500" 
d="M459 147q0 -75 -58.5 -118.5t-157.5 -43.5q-103 0 -154.5 42.5t-54.5 132.5h88q8 -57 38 -77.5t90 -20.5q55 0 88.5 21t33.5 57q0 28 -18.5 43t-62.5 26l-78 19q-93 22 -129.5 55.5t-36.5 95.5q0 73 55 116.5t146 43.5t140 -42t50 -119h-88q-3 84 -105 84
q-51 0 -81 -21.5t-30 -57.5q0 -28 23 -45.5t74 -29.5l80 -19q79 -19 113.5 -51.5t34.5 -90.5zM301 -163q0 -57 -26.5 -89t-73.5 -32v38q55 0 55 78v8h-55v100h100v-103z" />
    <glyph glyph-name="uni021A" unicode="&#x21a;" horiz-adv-x="611" 
d="M593 647h-239v-647h-93v647h-240v82h572v-82zM359 -163q0 -57 -26.5 -89t-73.5 -32v38q55 0 55 78v8h-55v100h100v-103z" />
    <glyph glyph-name="uni021B" unicode="&#x21b;" horiz-adv-x="278" 
d="M254 0q-39 -7 -68 -7q-49 0 -75 21.5t-26 61.5v380h-71v68h71v144h83v-144h86v-68h-86v-343q0 -28 9.5 -37.5t36.5 -9.5q25 0 40 4v-70zM190 -163q0 -57 -26.5 -89t-73.5 -32v38q55 0 55 78v8h-55v100h100v-103z" />
    <glyph glyph-name="ereversed" unicode="&#x258;" 
d="M513 259q0 -129 -63.5 -201.5t-174.5 -72.5q-89 0 -148.5 47t-75.5 127h84q32 -97 137 -97q68 0 110.5 44.5t43.5 131.5h-386q0 108 21 163q25 64 81.5 101t130.5 37q110 0 175 -75.5t65 -204.5zM424 306q-5 70 -46 113t-104 43q-61 0 -103 -44t-42 -106q0 -4 1 -6h294z
" />
    <glyph glyph-name="schwa" unicode="&#x259;" 
d="M513 265q0 -129 -65 -204.5t-175 -75.5q-74 0 -130.5 37t-81.5 101q-21 55 -21 163h386q-1 87 -43.5 131.5t-110.5 44.5q-105 0 -137 -97h-84q16 80 75.5 127t148.5 47q111 0 174.5 -72.5t63.5 -201.5zM424 218h-294l-1 -6q0 -62 42 -106t103 -44q63 0 104 43t46 113z
" />
    <glyph glyph-name="ringhalfright" unicode="&#x2be;" horiz-adv-x="449" 
d="M381 514q0 -90 -44.5 -143t-118.5 -53q-64 0 -102.5 34t-43.5 101q-2 8 8 8h56q6 0 8 -7q9 -69 74 -69q43 0 66 33.5t23 95.5q0 58 -23.5 90t-66.5 32q-66 0 -77 -72q-2 -7 -8 -7h-56q-10 0 -8 9q5 64 45 100.5t105 36.5q75 0 119 -50.5t44 -138.5z" />
    <glyph glyph-name="ringhalfleft" unicode="&#x2bf;" horiz-adv-x="449" 
d="M381 455q-5 -64 -45 -100.5t-105 -36.5q-75 0 -119 50.5t-44 138.5q0 90 44.5 143t118.5 53q64 0 102.5 -34t43.5 -101q2 -8 -8 -8h-56q-6 0 -8 7q-9 69 -74 69q-43 0 -66 -33.5t-23 -95.5q0 -58 23.5 -90t66.5 -32q66 0 77 72q2 7 8 7h56q10 0 8 -9z" />
    <glyph glyph-name="circumflex" unicode="&#x2c6;" horiz-adv-x="333" 
d="M310 580h-63l-81 96l-79 -96h-64l96 150h95z" />
    <glyph glyph-name="caron" unicode="&#x2c7;" horiz-adv-x="333" 
d="M310 730l-96 -150h-95l-96 150h63l81 -96l79 96h64z" />
    <glyph glyph-name="breve" unicode="&#x2d8;" horiz-adv-x="333" 
d="M316 723q0 -57 -45 -96t-107 -39t-107 39t-45 96h54q12 -30 39 -48t59 -18t59 18t39 48h54z" />
    <glyph glyph-name="dotaccent" unicode="&#x2d9;" horiz-adv-x="333" 
d="M219 603h-104v104h104v-104z" />
    <glyph glyph-name="ring" unicode="&#x2da;" horiz-adv-x="333" 
d="M263 654q0 -39 -28.5 -67t-67.5 -28q-40 0 -68.5 28.5t-28.5 68.5q0 38 28.5 66.5t68.5 28.5t68 -28.5t28 -68.5zM215 654q0 21 -14 35t-34 14t-34.5 -14t-14.5 -33q0 -20 14.5 -34.5t34.5 -14.5q19 0 33.5 14t14.5 33z" />
    <glyph glyph-name="ogonek" unicode="&#x2db;" horiz-adv-x="333" 
d="M276 -230h-50q-49 0 -85.5 26t-36.5 71q0 72 79 133h65q-36 -27 -51 -50t-15 -58q0 -44 44 -44h50v-78z" />
    <glyph glyph-name="tilde" unicode="&#x2dc;" horiz-adv-x="333" 
d="M319 707q-15 -104 -89 -104q-21 0 -85 25q-35 13 -49 13q-23 0 -33 -37h-58q8 49 30.5 76t55.5 27q23 0 70 -19q41 -18 63 -18q25 0 37 37h58z" />
    <glyph glyph-name="hungarumlaut" unicode="&#x2dd;" horiz-adv-x="333" 
d="M254 730l-149 -150h-60l96 150h113zM418 730l-149 -150h-60l96 150h113z" />
    <glyph glyph-name="uni0300" unicode="&#x300;" horiz-adv-x="0" 
d="M-248 581h-60l-149 148h113z" />
    <glyph glyph-name="uni0301" unicode="&#x301;" horiz-adv-x="0" 
d="M-98 729l-149 -148h-60l96 148h113z" />
    <glyph glyph-name="uni0302" unicode="&#x302;" horiz-adv-x="0" 
d="M-134 580h-63l-81 96l-79 -96h-64l96 150h95z" />
    <glyph glyph-name="uni0303" unicode="&#x303;" horiz-adv-x="0" 
d="M-125 707q-15 -104 -89 -104q-21 0 -85 25q-35 13 -49 13q-23 0 -33 -37h-58q8 49 30.5 76t55.5 27q23 0 70 -19q41 -18 63 -18q25 0 37 37h58z" />
    <glyph glyph-name="uni0304" unicode="&#x304;" horiz-adv-x="0" 
d="M-142 620h-274v70h274v-70z" />
    <glyph glyph-name="uni0306" unicode="&#x306;" horiz-adv-x="0" 
d="M-128 723q0 -57 -45 -96t-107 -39t-107 39t-45 96h54q12 -30 39 -48t59 -18t59 18t39 48h54z" />
    <glyph glyph-name="uni0307" unicode="&#x307;" horiz-adv-x="0" 
d="M-225 603h-104v104h104v-104z" />
    <glyph glyph-name="uni0308" unicode="&#x308;" horiz-adv-x="0" 
d="M-313 604h-91v102h91v-102zM-151 604h-91v102h91v-102z" />
    <glyph glyph-name="uni0309" unicode="&#x309;" horiz-adv-x="0" 
d="M-165 706q0 -24 -10.5 -40.5t-39.5 -37.5q-23 -18 -29 -24.5t-6 -14.5v-30h-62v33q0 23 11 38t42 35v-1q32 25 32 42q0 14 -14 22.5t-37 8.5q-34 0 -45 -17v1q-7 -11 -7 -44h-61q0 115 116 115q51 0 80.5 -23.5t29.5 -62.5z" />
    <glyph glyph-name="uni030A" unicode="&#x30a;" horiz-adv-x="0" 
d="M-181 654q0 -39 -28.5 -67t-67.5 -28q-40 0 -68.5 28.5t-28.5 68.5q0 38 28.5 66.5t68.5 28.5t68 -28.5t28 -68.5zM-229 654q0 21 -14 35t-34 14t-34.5 -14t-14.5 -33q0 -20 14.5 -34.5t34.5 -14.5q19 0 33.5 14t14.5 33z" />
    <glyph glyph-name="uni030B" unicode="&#x30b;" horiz-adv-x="0" 
d="M-190 730l-149 -150h-60l96 150h113zM-26 730l-149 -150h-60l96 150h113z" />
    <glyph glyph-name="uni030C" unicode="&#x30c;" horiz-adv-x="0" 
d="M-134 730l-96 -150h-95l-96 150h63l81 -96l79 96h64z" />
    <glyph glyph-name="uni030F" unicode="&#x30f;" horiz-adv-x="0" 
d="M-156 580h-60l-149 150h113zM-320 580h-60l-149 150h113z" />
    <glyph glyph-name="uni0311" unicode="&#x311;" horiz-adv-x="0" 
d="M-128 588h-54q-12 30 -39 48t-59 18t-59 -18t-39 -48h-54q0 57 45 96t107 39t107 -39t45 -96z" />
    <glyph glyph-name="uni0323" unicode="&#x323;" horiz-adv-x="0" 
d="M-225 -183h-104v104h104v-104z" />
    <glyph glyph-name="uni0326" unicode="&#x326;" horiz-adv-x="0" 
d="M-227 -163q0 -57 -26.5 -89t-73.5 -32v38q55 0 55 78v8h-55v100h100v-103z" />
    <glyph glyph-name="uni032E" unicode="&#x32e;" horiz-adv-x="0" 
d="M-97 -70q-12 -122 -182 -122q-81 0 -129.5 30t-49.5 92h71q4 -29 30 -39.5t80 -10.5q104 0 109 50h71z" />
    <glyph glyph-name="uni032F" unicode="&#x32f;" horiz-adv-x="0" 
d="M-97 -192h-71q-4 29 -30 39.5t-80 10.5q-104 0 -109 -50h-71q12 122 182 122q81 0 129.5 -30t49.5 -92z" />
    <glyph glyph-name="uni0330" unicode="&#x330;" horiz-adv-x="0" 
d="M-125 -79q-15 -104 -89 -104q-21 0 -85 25q-35 13 -49 13q-23 0 -33 -37h-58q8 49 30.5 76t55.5 27q23 0 70 -19q41 -18 63 -18q25 0 37 37h58z" />
    <glyph glyph-name="uni0331" unicode="&#x331;" horiz-adv-x="0" 
d="M-142 -166h-274v70h274v-70z" />
    <glyph glyph-name="uni0332" unicode="&#x332;" horiz-adv-x="0" 
d="M-142 -166h-274v70h274v-70z" />
    <glyph glyph-name="Alpha" unicode="&#x391;" horiz-adv-x="667" 
d="M653 0h-104l-75 219h-281l-77 -219h-99l260 729h120zM448 297l-112 332l-120 -332h232z" />
    <glyph glyph-name="Beta" unicode="&#x392;" horiz-adv-x="667" 
d="M623 208q0 -91 -59 -149.5t-156 -58.5h-329v729h296q101 0 158.5 -51.5t57.5 -133.5q0 -112 -101 -159q70 -27 101.5 -69t31.5 -108zM498 531q0 116 -146 116h-180v-232h180q146 0 146 116zM530 207q0 56 -33.5 91t-97.5 35h-227v-251h227q63 0 97 35t34 90z" />
    <glyph glyph-name="Gamma" unicode="&#x393;" horiz-adv-x="611" 
d="M579 647h-396v-647h-93v729h489v-82z" />
    <glyph glyph-name="Delta" unicode="&#x394;" horiz-adv-x="711" 
d="M713 0h-715l320 715h75zM586 82l-231 516l-230 -516h461z" />
    <glyph glyph-name="Epsilon" unicode="&#x395;" horiz-adv-x="667" 
d="M613 0h-523v729h505v-82h-412v-233h397v-82h-397v-250h430v-82z" />
    <glyph glyph-name="Zeta" unicode="&#x396;" horiz-adv-x="611" 
d="M583 0h-555v82l438 565h-410v82h525v-84l-436 -563h438v-82z" />
    <glyph glyph-name="Eta" unicode="&#x397;" horiz-adv-x="722" 
d="M644 0h-93v332h-375v-332h-93v729h93v-315h375v315h93v-729z" />
    <glyph glyph-name="Theta" unicode="&#x398;" horiz-adv-x="778" 
d="M742 353q0 -163 -96.5 -267t-255.5 -104q-158 0 -255 103.5t-97 273.5q0 172 97.5 280t253.5 108q160 0 256.5 -108.5t96.5 -285.5zM649 355q0 139 -71 224.5t-189 85.5q-115 0 -186.5 -85.5t-71.5 -220.5q0 -134 71 -214.5t188 -80.5q116 0 187.5 80t71.5 211zM585 324
h-389v82h389v-82z" />
    <glyph glyph-name="Iota" unicode="&#x399;" horiz-adv-x="278" 
d="M193 0h-93v729h93v-729z" />
    <glyph glyph-name="Kappa" unicode="&#x39a;" horiz-adv-x="667" 
d="M658 0h-110l-257 374l-119 -119v-255h-93v729h93v-369l363 369h120l-297 -297z" />
    <glyph glyph-name="Lambda" unicode="&#x39b;" horiz-adv-x="667" 
d="M653 0h-104l-213 629l-220 -629h-99l260 729h120z" />
    <glyph glyph-name="Mu" unicode="&#x39c;" horiz-adv-x="833" 
d="M761 0h-88v611l-205 -611h-98l-207 611v-611h-88v729h129l216 -635l212 635h129v-729z" />
    <glyph glyph-name="Nu" unicode="&#x39d;" horiz-adv-x="722" 
d="M646 0h-105l-377 591v-591h-88v729h101l381 -596v596h88v-729z" />
    <glyph glyph-name="Xi" unicode="&#x39e;" horiz-adv-x="722" 
d="M676 637h-630v92h630v-92zM584 324h-446v82h446v-82zM676 0h-630v92h630v-92z" />
    <glyph glyph-name="Omicron" unicode="&#x39f;" horiz-adv-x="778" 
d="M742 353q0 -163 -96.5 -267t-255.5 -104q-158 0 -255 103.5t-97 273.5q0 172 97.5 280t253.5 108q160 0 256.5 -108.5t96.5 -285.5zM649 355q0 139 -71 224.5t-189 85.5q-115 0 -186.5 -85.5t-71.5 -220.5q0 -134 71 -214.5t188 -80.5q116 0 187.5 80t71.5 211z" />
    <glyph glyph-name="Pi" unicode="&#x3a0;" horiz-adv-x="621" 
d="M591 0h-93v647h-375v-647h-93v729h561v-729z" />
    <glyph glyph-name="Rho" unicode="&#x3a1;" horiz-adv-x="667" 
d="M617 515q0 -91 -57 -148.5t-147 -57.5h-229v-309h-93v729h301q108 0 166.5 -55.5t58.5 -158.5zM520 519q0 60 -37.5 94t-104.5 34h-194v-256h194q67 0 104.5 34t37.5 94z" />
    <glyph glyph-name="Sigma" unicode="&#x3a3;" horiz-adv-x="602" 
d="M572 0h-542v74l290 291l-290 290v74h542v-82h-418l282 -282l-282 -283h418v-82z" />
    <glyph glyph-name="Tau" unicode="&#x3a4;" horiz-adv-x="611" 
d="M593 647h-239v-647h-93v647h-240v82h572v-82z" />
    <glyph glyph-name="Upsilon" unicode="&#x3a5;" horiz-adv-x="667" 
d="M661 729l-274 -443v-286h-93v286l-281 443h115l214 -355l208 355h111z" />
    <glyph glyph-name="Phi" unicode="&#x3a6;" horiz-adv-x="761" 
d="M693 365q0 -92 -76.5 -150t-189.5 -68v-147h-93v147q-113 10 -189.5 68t-76.5 150t77 149.5t189 67.5v147h93v-147q112 -10 189 -67.5t77 -149.5zM334 223v283q-78 -9 -129 -45t-51 -96q0 -61 51 -97t129 -45zM607 365q0 60 -51 96t-129 45v-283q78 9 129 45t51 97z" />
    <glyph glyph-name="Chi" unicode="&#x3a7;" horiz-adv-x="667" 
d="M649 0h-115l-199 304l-200 -304h-113l258 374l-242 355h113l187 -286l188 286h111l-246 -355z" />
    <glyph glyph-name="Psi" unicode="&#x3a8;" horiz-adv-x="745" 
d="M677 524q0 -112 -74 -196t-184 -101v-227h-93v227q-110 17 -184 101t-74 196v205h86v-205q0 -80 48.5 -141t123.5 -78v424h93v-424q75 17 123.5 78t48.5 141v205h86v-205z" />
    <glyph glyph-name="Omega" unicode="&#x3a9;" horiz-adv-x="760" 
d="M730 0h-292v201q72 20 118 82.5t46 142.5q0 95 -64.5 164t-157.5 69t-157.5 -69t-64.5 -164q0 -80 46 -142.5t118 -82.5v-201h-292v82h199v67q-75 41 -119.5 115t-44.5 162q0 130 92.5 222.5t222.5 92.5t222.5 -92.5t92.5 -222.5q0 -88 -44.5 -162t-119.5 -115v-67h199
v-82z" />
    <glyph glyph-name="alpha" unicode="&#x3b1;" horiz-adv-x="770" 
d="M702 22l-67 -44q-29 43 -71 167q-88 -157 -225 -157q-112 0 -191.5 76t-79.5 185q0 118 79 202.5t192 84.5q140 0 228 -179q55 169 68 189l67 -44q-22 -33 -94 -253q52 -165 94 -227zM531 249q-68 211 -192 211q-80 0 -134.5 -62.5t-54.5 -148.5q0 -77 55.5 -131
t133.5 -54q68 0 116 52t76 133z" />
    <glyph glyph-name="beta" unicode="&#x3b2;" horiz-adv-x="549" 
d="M513 219q0 -110 -60.5 -172t-163.5 -62q-73 0 -133 43v-258h-83v768q0 95 60 143t151 48q89 0 143.5 -51t54.5 -133q0 -104 -109 -144q73 -25 106.5 -68.5t33.5 -113.5zM426 213q0 76 -42 106t-135 30v82h9q60 0 98.5 31t38.5 80q0 48 -33 78.5t-85 30.5q-55 0 -88 -30.5
t-33 -82.5v-427q55 -44 125 -44q65 0 105 40t40 106z" />
    <glyph glyph-name="gamma" unicode="&#x3b3;" horiz-adv-x="641" 
d="M574 524l-212 -531v-223h-82v223l-212 531h88l165 -414l165 414h88z" />
    <glyph glyph-name="delta" unicode="&#x3b4;" horiz-adv-x="548" 
d="M518 223q0 -100 -71 -169t-173 -69q-101 0 -172.5 69t-71.5 169q0 80 59 134.5t152 76.5q-99 78 -99 181q0 52 47 83t110 31q92 0 158 -66l-48 -48q-46 46 -110 46q-31 0 -52.5 -11.5t-21.5 -34.5q0 -34 23 -67t41.5 -47.5t64.5 -45.5q9 -7 14 -10q150 -103 150 -222z
M425 223q0 51 -28 92t-75 61q-81 0 -140 -42t-59 -111q0 -65 43.5 -110t107.5 -45t107.5 45t43.5 110z" />
    <glyph glyph-name="epsilon" unicode="&#x3b5;" horiz-adv-x="609" 
d="M541 24q-114 -56 -213 -56q-106 0 -183 56.5t-77 146.5q0 84 92 117q-77 34 -77 111q0 72 64 115t151 43q103 0 227 -57l-25 -56q-83 37 -202 37q-55 0 -94 -20.5t-39 -61.5q0 -16 5.5 -28.5t17.5 -21.5t23.5 -15t32.5 -10t36 -6.5t41.5 -3.5t41 -1h42.5v-61h-44.5
t-43.5 -1t-44 -3t-38.5 -6t-35 -10t-25.5 -14t-18.5 -20t-5.5 -27q0 -58 53 -92.5t125 -34.5q114 0 186 36z" />
    <glyph glyph-name="zeta" unicode="&#x3b6;" horiz-adv-x="522" 
d="M488 -74q0 -63 -46 -106t-110 -43v68q31 0 52.5 24t21.5 57q0 32 -21.5 54.5t-52.5 22.5h-37q-97 0 -162 76.5t-65 182.5q0 125 63.5 231.5t171.5 170.5h-235v61h420v-61h-51q-129 -38 -208 -150.5t-79 -251.5q0 -74 40.5 -128.5t104.5 -54.5h37q65 0 110.5 -44.5
t45.5 -108.5z" />
    <glyph glyph-name="eta" unicode="&#x3b7;" 
d="M488 -230h-82v579q0 46 -32.5 78.5t-78.5 32.5q-47 0 -85.5 -23.5t-59.5 -62.5v-374h-82v524h82v-44q61 56 145 56q79 0 136 -54.5t57 -132.5v-579z" />
    <glyph glyph-name="theta" unicode="&#x3b8;" horiz-adv-x="581" 
d="M513 352q0 -95 -22 -174.5t-74 -134.5t-127 -55q-56 0 -100 31t-70 83.5t-39 116t-13 133.5q0 75 12 141.5t37 123.5t69.5 90.5t103.5 33.5t104 -33.5t70 -90.5t37 -123.5t12 -141.5zM431 390q-1 58 -7 101.5t-20.5 86t-43 65t-70.5 22.5q-34 0 -59 -16t-39.5 -41
t-24 -63t-13 -74t-4.5 -81h281zM430 314h-279q8 -250 139 -250q132 0 140 250z" />
    <glyph glyph-name="iota" unicode="&#x3b9;" horiz-adv-x="354" 
d="M286 -12q-63 0 -106.5 50t-43.5 119v367h82v-367q0 -37 18.5 -65t49.5 -28v-76z" />
    <glyph glyph-name="kappa" unicode="&#x3ba;" horiz-adv-x="500" 
d="M502 0h-103l-177 284l-81 -80v-204h-83v524h83v-222l222 222h107l-182 -181z" />
    <glyph glyph-name="lambda" unicode="&#x3bb;" horiz-adv-x="685" 
d="M618 0h-88l-144 379l-224 -379h-94l281 475l-14 36q-24 62 -71.5 102.5t-107.5 40.5v68q85 0 155 -51.5t102 -133.5z" />
    <glyph glyph-name="mu.greek" unicode="&#x3bc;" horiz-adv-x="692" 
d="M556 0h-82v46q-53 -58 -128 -58t-128 58v-276h-82v754h82v-333q14 -57 46.5 -92t81.5 -35t81.5 35t46.5 92v333h82v-524z" />
    <glyph glyph-name="nu" unicode="&#x3bd;" horiz-adv-x="571" 
d="M537 349q0 -117 -62 -216t-168 -149l-55 21l-218 519h88l187 -445q68 45 107 116.5t39 153.5t-16 175h84q14 -81 14 -175z" />
    <glyph glyph-name="xi" unicode="&#x3be;" 
d="M488 -74q0 -63 -46 -106t-110 -43v68q31 0 52.5 24t21.5 57q0 32 -21.5 54.5t-52.5 22.5h-37q-93 0 -160 62t-67 152q0 57 31.5 102.5t85.5 73.5q-102 53 -102 151q0 72 64 120h-79v61h420v-61h-187q-59 -10 -97.5 -41t-38.5 -79q0 -54 49.5 -85.5t117.5 -31.5v-68
q-74 0 -128 -39.5t-54 -102.5q0 -58 42.5 -98t102.5 -40h37q65 0 110.5 -44.5t45.5 -108.5z" />
    <glyph glyph-name="omicron" unicode="&#x3bf;" 
d="M510 258q0 -129 -63 -201t-174 -72q-112 0 -174.5 72.5t-62.5 204.5q0 131 62.5 204t173.5 73q114 0 176 -73t62 -208zM423 259q0 97 -39.5 150t-110.5 53q-70 0 -110 -53t-40 -147q0 -95 40 -147.5t110 -52.5q69 0 109.5 52.5t40.5 144.5z" />
    <glyph glyph-name="pi" unicode="&#x3c0;" horiz-adv-x="671" 
d="M641 456h-100v-456h-83v456h-165v-456h-83v456q-58 0 -85 -27.5t-27 -86.5h-68q0 105 50.5 143.5t171.5 38.5h389v-68z" />
    <glyph glyph-name="rho" unicode="&#x3c1;" horiz-adv-x="636" 
d="M568 262q0 -112 -72 -193t-178 -81q-93 0 -168 61v-279h-82v492q0 112 72 193t178 81t178 -81t72 -193zM486 262q0 80 -48 139t-120 59t-120 -59t-48 -139v-121q62 -77 168 -77q72 0 120 59t48 139z" />
    <glyph glyph-name="uni03C2" unicode="&#x3c2;" 
d="M488 -74q0 -63 -46 -106t-110 -43v68q31 0 52.5 24t21.5 57q0 32 -21.5 54.5t-52.5 22.5h-37q-98 0 -162.5 79.5t-64.5 187.5t65 187t162 79q69 0 121.5 -43.5t66.5 -111.5l-72 -15q-8 41 -41 67.5t-75 26.5q-65 0 -105 -56.5t-40 -133.5t40 -134t105 -57h37
q65 0 110.5 -44.5t45.5 -108.5z" />
    <glyph glyph-name="sigma" unicode="&#x3c3;" horiz-adv-x="647" 
d="M613 502q-59 -17 -142 -27q71 -73 71 -217q0 -129 -63 -201t-174 -72q-112 0 -174.5 72.5t-62.5 204.5q0 131 62.5 204t173.5 73q33 0 67 -8q97 9 222 45zM455 259q0 97 -39.5 150t-110.5 53q-70 0 -110 -53t-40 -147q0 -95 40 -147.5t110 -52.5q69 0 109.5 52.5
t40.5 144.5z" />
    <glyph glyph-name="tau" unicode="&#x3c4;" horiz-adv-x="499" 
d="M431 445h-141v-288q0 -37 19 -65t50 -28v-76q-64 0 -107.5 50t-43.5 119v288h-140v76h363v-76z" />
    <glyph glyph-name="upsilon" unicode="&#x3c5;" 
d="M488 250q0 -106 -64 -184t-161 -78q-80 0 -137.5 54.5t-57.5 132.5v349h82v-349q0 -46 33 -78.5t80 -32.5q64 0 103.5 55.5t39.5 130.5q0 134 -31 274h84q29 -130 29 -274z" />
    <glyph glyph-name="phi" unicode="&#x3c6;" horiz-adv-x="858" 
d="M790 262q0 -113 -93.5 -187t-226.5 -85v-220h-82v220q-133 11 -226.5 85t-93.5 187q0 88 52 161.5t136 106.5l26 -64q-61 -24 -96.5 -80t-35.5 -124q0 -82 69 -134t169 -62v184q0 116 54 201t147 85q91 0 146 -81.5t55 -192.5zM708 262q0 81 -30 139.5t-89 58.5
q-42 0 -70 -32.5t-38.5 -77.5t-10.5 -100v-184q100 10 169 62t69 134z" />
    <glyph glyph-name="chi" unicode="&#x3c7;" horiz-adv-x="646" 
d="M578 -230h-92l-163 294l-163 -294h-92l209 377l-209 377h92l163 -294l163 294h92l-209 -377z" />
    <glyph glyph-name="psi" unicode="&#x3c8;" horiz-adv-x="722" 
d="M654 175q0 -82 -72.5 -129.5t-179.5 -55.5v-220h-82v220q-107 8 -179.5 55.5t-72.5 129.5v349h82v-349q0 -98 170 -110v664h82v-664q170 12 170 110v349h82v-349z" />
    <glyph glyph-name="omega" unicode="&#x3c9;" horiz-adv-x="757" 
d="M689 275q0 -75 -17.5 -138t-58.5 -106t-100 -43q-94 0 -137 102q-44 -102 -132 -102q-59 0 -100 43t-58.5 106t-17.5 138q0 109 64 249h63q-45 -98 -45 -249q0 -44 3 -75.5t11.5 -65.5t28.5 -52t51 -18q85 0 102 141q-8 61 -8 144h82v-50t1 -48.5t3.5 -49t7 -42.5
t11.5 -39.5t16.5 -28.5t23 -20.5t30.5 -6.5q31 0 51 18t28.5 52t11.5 65.5t3 75.5q0 151 -45 249h63q64 -140 64 -249z" />
    <glyph glyph-name="uni03D1" unicode="&#x3d1;" horiz-adv-x="624" 
d="M556 389h-68v-214q0 -80 -62.5 -135t-147.5 -55t-147.5 55t-62.5 135v174h82v-174q0 -47 38 -77.5t90 -30.5t90 30.5t38 77.5v216q-70 3 -121 12t-98 28.5t-71.5 55t-24.5 87.5q0 77 55 131t132 54q89 0 149.5 -69.5t60.5 -165.5v-74h68v-61zM406 524q0 71 -35 123
t-93 52q-51 0 -86 -37t-35 -88q0 -33 19.5 -56.5t56 -36.5t77.5 -19.5t96 -9.5v72z" />
    <glyph glyph-name="uni03D5" unicode="&#x3d5;" horiz-adv-x="701" 
d="M634 262q0 -104 -69.5 -182t-172.5 -92v-218h-82v218q-103 14 -172 92t-69 182t69 182t172 92v193h82v-193q103 -14 172.5 -92t69.5 -182zM552 262q0 70 -46 123.5t-114 67.5v-382q68 14 114 67.5t46 123.5zM310 453q-68 -14 -113.5 -67.5t-45.5 -123.5t45.5 -123.5
t113.5 -67.5v382z" />
    <glyph glyph-name="uni03D6" unicode="&#x3d6;" horiz-adv-x="757" 
d="M689 275q0 -75 -17.5 -138t-58.5 -106t-100 -43q-94 0 -137 102q-44 -102 -132 -102q-59 0 -100 43t-58.5 106t-17.5 138q0 109 64 249h63q-45 -98 -45 -249q0 -44 3 -75.5t11.5 -65.5t28.5 -52t51 -18q85 0 102 141q-8 61 -8 144h82v-50t1 -48.5t3.5 -49t7 -42.5
t11.5 -39.5t16.5 -28.5t23 -20.5t30.5 -6.5q31 0 51 18t28.5 52t11.5 65.5t3 75.5q0 71 -10 132.5t-31.5 116t-61 86t-94.5 31.5q-116 0 -230 -40l-17 51q119 42 247 42q89 0 154 -62t95 -155t30 -202z" />
    <glyph glyph-name="epsilon.alt" unicode="&#x3f5;" horiz-adv-x="500" 
d="M468 131q-19 -69 -72.5 -107.5t-132.5 -38.5q-107 0 -169.5 73t-62.5 199q0 130 63.5 206t169.5 76q78 0 130 -37t70 -109h-89q-31 69 -112 69q-61 0 -98.5 -43t-44.5 -123h213v-68h-214q6 -79 44 -122.5t102 -43.5q84 0 114 69h89z" />
    <glyph glyph-name="uni0400" unicode="&#x400;" horiz-adv-x="667" 
d="M447 769h-60l-149 148h113zM613 0h-523v729h505v-82h-412v-233h397v-82h-397v-250h430v-82z" />
    <glyph glyph-name="afii10023" unicode="&#x401;" horiz-adv-x="667" 
d="M602 0h-523v729h505v-82h-412v-233h397v-82h-397v-250h430v-82zM303 811h-104v103h104v-103zM465 811h-104v103h104v-103z" />
    <glyph glyph-name="afii10051" unicode="&#x402;" horiz-adv-x="738" 
d="M701 18q0 -90 -46.5 -141t-138.5 -51h-52v82h48q43 0 69.5 23.5t26.5 68.5v295q0 45 -26.5 68.5t-69.5 23.5h-198v-387h-93v647h-200v82h492v-82h-199v-178h202q92 0 138.5 -51t46.5 -141v-259z" />
    <glyph glyph-name="afii10052" unicode="&#x403;" horiz-adv-x="611" 
d="M579 647h-396v-647h-93v729h489v-82zM439 917l-149 -148h-60l96 148h113z" />
    <glyph glyph-name="afii10053" unicode="&#x404;" horiz-adv-x="722" 
d="M677 266q-33 -289 -300 -289q-141 0 -223 85q-106 109 -106 294q0 183 102 294q82 91 231 91q238 0 281 -238h-95q-15 75 -53 110q-49 46 -144 46q-94 0 -154 -65t-72 -180h364v-82h-366q6 -126 69.5 -199.5t166.5 -73.5q59 0 103.5 24.5t66.5 69.5q22 42 33 113h96z" />
    <glyph glyph-name="afii10054" unicode="&#x405;" horiz-adv-x="667" 
d="M621 200q0 -47 -21.5 -92.5t-58.5 -74.5q-73 -56 -205 -56q-169 0 -245 104q-42 57 -43 151h88q-1 -65 38 -112q51 -61 168 -61q89 0 134 31q23 17 37.5 44.5t14.5 56.5q0 83 -134 118l-181 48q-143 37 -143 170q0 99 69.5 156.5t189.5 57.5q126 0 196 -59.5t71 -166.5
h-88q-1 71 -48 109.5t-134 38.5q-74 0 -118.5 -34t-44.5 -89q0 -42 27 -66t93 -42l183 -49q74 -20 114.5 -68t40.5 -115z" />
    <glyph glyph-name="afii10055" unicode="&#x406;" horiz-adv-x="278" 
d="M194 0h-94v729h94v-729z" />
    <glyph glyph-name="afii10056" unicode="&#x407;" horiz-adv-x="278" 
d="M112 805h-104v103h104v-103zM274 805h-104v103h104v-103zM194 0h-94v729h94v-729z" />
    <glyph glyph-name="afii10057" unicode="&#x408;" horiz-adv-x="500" 
d="M426 182q0 -95 -55.5 -150t-150.5 -55q-94 0 -148.5 52t-54.5 141v64h95v-47q0 -64 28 -98t81 -34q60 0 89 45q23 34 23 116v513h93v-547z" />
    <glyph glyph-name="afii10058" unicode="&#x409;" horiz-adv-x="1080" 
d="M1022 208q0 -88 -56 -147q-57 -61 -159 -61h-294v647h-225v-55q2 -44 0.5 -92.5t-2.5 -98.5t-7 -99t-14.5 -93.5t-24.5 -82.5t-36.5 -66t-51.5 -44t-69 -16v94q82 0 103 205q9 95 8 390v40h413v-314h144q246 0 271 -207zM929 207q0 55 -34 91q-32 35 -97 35h-191v-251
h191q65 0 97 35q34 36 34 90z" />
    <glyph glyph-name="afii10059" unicode="&#x40a;" horiz-adv-x="1014" 
d="M972 208q0 -88 -56 -147q-57 -61 -159 -61h-276v332h-304v-332h-94v729h93v-315h305v315h93v-314h127q246 0 271 -207zM879 207q0 55 -34 91q-32 35 -97 35h-174v-251h174q65 0 97 35q34 36 34 90z" />
    <glyph glyph-name="afii10060" unicode="&#x40b;" horiz-adv-x="748" 
d="M711 0h-93v295q0 45 -26.5 68.5t-69.5 23.5h-208v-387h-93v647h-200v82h492v-82h-199v-178h212q92 0 138.5 -51t46.5 -141v-277z" />
    <glyph glyph-name="afii10061" unicode="&#x40c;" horiz-adv-x="667" 
d="M658 0h-110l-376 324v-324h-93v729h93v-315l363 315h120l-412 -354zM471 917l-149 -148h-60l96 148h113z" />
    <glyph glyph-name="uni040D" unicode="&#x40d;" horiz-adv-x="722" 
d="M646 0h-88v591l-377 -591h-105v729h88v-596l381 596h101v-729zM466 769h-60l-149 148h113z" />
    <glyph glyph-name="afii10062" unicode="&#x40e;" horiz-adv-x="650" 
d="M619 729l-367 -729h-113l129 244l-242 485h113l185 -379l184 379h111zM473 904q-11 -135 -152 -135q-86 0 -128 57q-20 28 -21 78h59q7 -66 92 -66q40 0 64 17t27 49h59z" />
    <glyph glyph-name="afii10145" unicode="&#x40f;" horiz-adv-x="722" 
d="M645 0h-241v-135h-80v135h-241v729h94v-647h374v647h94v-729z" />
    <glyph glyph-name="afii10017" unicode="&#x410;" horiz-adv-x="667" 
d="M653 0h-104l-75 219h-281l-77 -219h-99l260 729h120zM448 297l-112 332l-120 -332h232z" />
    <glyph glyph-name="afii10018" unicode="&#x411;" horiz-adv-x="667" 
d="M623 218q0 -98 -56 -157q-57 -61 -159 -61h-329v729h489v-82h-396v-212h236q30 0 57.5 -5t57 -20t51 -38.5t35.5 -63t14 -90.5zM530 217q0 65 -34 101q-32 35 -97 35h-227v-271h227q65 0 97 35q34 36 34 100z" />
    <glyph glyph-name="afii10019" unicode="&#x412;" horiz-adv-x="667" 
d="M623 208q0 -88 -56 -147q-57 -61 -159 -61h-329v729h296q103 0 158 -51q58 -52 58 -134q0 -112 -101 -159q70 -27 101.5 -69t31.5 -108zM498 531q0 59 -40 90q-34 26 -106 26h-180v-232h180q72 0 106 26q40 31 40 90zM530 207q0 55 -34 91q-32 35 -97 35h-227v-251h227
q65 0 97 35q34 36 34 90z" />
    <glyph glyph-name="afii10020" unicode="&#x413;" horiz-adv-x="611" 
d="M568 647h-396v-647h-93v729h489v-82z" />
    <glyph glyph-name="afii10021" unicode="&#x414;" horiz-adv-x="812" 
d="M593 82v565h-262v-243q0 -214 -69 -322h331zM778 -135h-80v135h-584v-135h-80v209h92q111 51 111 330v325h450v-655h91v-209z" />
    <glyph glyph-name="afii10022" unicode="&#x415;" horiz-adv-x="667" 
d="M602 0h-523v729h505v-82h-412v-233h397v-82h-397v-250h430v-82z" />
    <glyph glyph-name="afii10024" unicode="&#x416;" horiz-adv-x="1023" 
d="M948 0h-118l-278 324v-324h-93v324l-286 -324h-110l325 375l-283 354h116l238 -308v308h93v-308l238 308h116l-283 -354z" />
    <glyph glyph-name="afii10025" unicode="&#x417;" horiz-adv-x="667" 
d="M621 200q0 -47 -21.5 -92.5t-58.5 -74.5q-73 -56 -205 -56q-169 0 -245 104q-42 57 -43 151h88q-1 -65 38 -112q51 -61 168 -61q89 0 134 31q23 17 37.5 44.5t14.5 56.5q0 59 -45.5 94.5t-117.5 35.5h-108v82h88q65 0 111.5 43t46.5 94q0 55 -44.5 89t-118.5 34
q-87 0 -134 -38.5t-48 -109.5h-88q1 107 71 166.5t196 59.5q120 0 189.5 -57.5t69.5 -156.5q0 -108 -105 -153q130 -49 130 -174z" />
    <glyph glyph-name="afii10026" unicode="&#x418;" horiz-adv-x="728" 
d="M649 0h-88v598l-377 -598h-105v729h88v-603l381 603h101v-729z" />
    <glyph glyph-name="afii10027" unicode="&#x419;" horiz-adv-x="728" 
d="M514 924q-11 -135 -152 -135q-86 0 -128 57q-20 28 -21 78h59q8 -66 92 -66q40 0 64 17t27 49h59zM649 0h-88v598l-377 -598h-105v729h88v-603l381 603h101v-729z" />
    <glyph glyph-name="afii10028" unicode="&#x41a;" horiz-adv-x="667" 
d="M621 0h-124l-325 333v-333h-93v729h93v-306l305 306h111l-345 -345z" />
    <glyph glyph-name="afii10029" unicode="&#x41b;" horiz-adv-x="673" 
d="M594 0h-94v647h-262v-243q0 -82 -10 -152t-32.5 -131t-64 -96t-98.5 -35v94q57 0 84 90t27 230v325h450v-729z" />
    <glyph glyph-name="afii10030" unicode="&#x41c;" horiz-adv-x="844" 
d="M765 0h-88v611l-205 -611h-98l-207 611v-611h-88v729h129l216 -635l212 635h129v-729z" />
    <glyph glyph-name="afii10031" unicode="&#x41d;" horiz-adv-x="719" 
d="M640 0h-94v332h-373v-332h-94v729h93v-315h374v315h94v-729z" />
    <glyph glyph-name="afii10032" unicode="&#x41e;" horiz-adv-x="778" 
d="M742 353q0 -90 -33.5 -169.5t-92.5 -129.5q-91 -77 -226 -77q-158 0 -255 105.5t-97 276.5t97 276.5t254 105.5q160 0 256.5 -106t96.5 -282zM649 355q0 138 -71 221t-189 83q-116 0 -187 -82.5t-71 -217.5t71.5 -217.5t187.5 -82.5t187.5 82t71.5 214z" />
    <glyph glyph-name="afii10033" unicode="&#x41f;" horiz-adv-x="719" 
d="M640 0h-94v647h-373v-647h-94v729h561v-729z" />
    <glyph glyph-name="afii10034" unicode="&#x420;" horiz-adv-x="667" 
d="M605 515q0 -97 -63 -154q-58 -52 -141 -52h-229v-309h-93v729h301q108 0 166.5 -55.5t58.5 -158.5zM508 519q0 60 -37.5 94t-104.5 34h-194v-256h194q67 0 104.5 34t37.5 94z" />
    <glyph glyph-name="afii10035" unicode="&#x421;" horiz-adv-x="722" 
d="M677 266q-33 -289 -300 -289q-141 0 -223 85q-106 109 -106 294q0 183 102 294q82 91 231 91q238 0 281 -238h-95q-15 75 -53 110q-49 46 -144 46q-106 0 -167.5 -81t-61.5 -221q0 -137 64 -217.5t173 -80.5q59 0 103.5 24.5t66.5 69.5q22 42 33 113h96z" />
    <glyph glyph-name="afii10036" unicode="&#x422;" horiz-adv-x="611" 
d="M593 647h-239v-647h-93v647h-240v82h572v-82z" />
    <glyph glyph-name="afii10037" unicode="&#x423;" horiz-adv-x="650" 
d="M619 729l-367 -729h-113l126 247l-239 482h113l179 -370l190 370h111z" />
    <glyph glyph-name="afii10038" unicode="&#x424;" horiz-adv-x="936" 
d="M829 365q0 -54 -13.5 -97.5t-33 -71.5t-51 -48t-58.5 -30t-64.5 -16t-60.5 -7t-54 -1v-94h-95v94q-31 0 -54 1t-60.5 7t-64.5 16t-58.5 30t-51 48t-33 71.5t-13.5 97.5q0 271 335 271v93h95v-93q335 0 335 -271zM729 365q0 50 -19.5 87t-46 55.5t-62.5 30t-60 14t-47 2.5
v-378q23 0 47 2.5t60 14t62.5 30t46 55.5t19.5 87zM399 176v378q-23 0 -47 -2.5t-60 -14t-62.5 -30t-46 -55.5t-19.5 -87t19.5 -87t46 -55.5t62.5 -30t60 -14t47 -2.5z" />
    <glyph glyph-name="afii10039" unicode="&#x425;" horiz-adv-x="667" 
d="M641 0h-107l-203 298l-196 -298h-113l258 374l-242 355h113l182 -279l193 279h104l-245 -355z" />
    <glyph glyph-name="afii10040" unicode="&#x426;" horiz-adv-x="741" 
d="M707 -135h-80v135h-548v729h94v-647h373v647h94v-655h67v-209z" />
    <glyph glyph-name="afii10041" unicode="&#x427;" horiz-adv-x="648" 
d="M569 0h-93v260h-212q-92 0 -138.5 51t-46.5 141v277h93v-295q0 -45 26.5 -68.5t69.5 -23.5h208v387h93v-729z" />
    <glyph glyph-name="afii10042" unicode="&#x428;" horiz-adv-x="828" 
d="M749 0h-670v729h94v-647h194v647h94v-647h194v647h94v-729z" />
    <glyph glyph-name="afii10043" unicode="&#x429;" horiz-adv-x="850" 
d="M816 -135h-80v135h-657v729h94v-647h194v647h94v-647h194v647h94v-655h67v-209z" />
    <glyph glyph-name="afii10044" unicode="&#x42a;" horiz-adv-x="897" 
d="M856 226q0 -99 -65 -162.5t-165 -63.5h-314v647h-231v82h324v-278h221q99 0 164.5 -64.5t65.5 -160.5zM763 225q0 64 -40.5 104t-105.5 40h-212v-287h212q64 0 105 41t41 102z" />
    <glyph glyph-name="afii10045" unicode="&#x42b;" horiz-adv-x="872" 
d="M623 226q0 -99 -65 -162.5t-165 -63.5h-314v729h93v-278h221q99 0 164.5 -64.5t65.5 -160.5zM530 225q0 64 -40.5 104t-105.5 40h-212v-287h212q64 0 105 41t41 102zM793 0h-94v729h94v-729z" />
    <glyph glyph-name="afii10046" unicode="&#x42c;" horiz-adv-x="667" 
d="M623 226q0 -99 -65 -162.5t-165 -63.5h-314v729h93v-278h221q99 0 164.5 -64.5t65.5 -160.5zM530 225q0 64 -40.5 104t-105.5 40h-212v-287h212q64 0 105 41t41 102z" />
    <glyph glyph-name="afii10047" unicode="&#x42d;" horiz-adv-x="722" 
d="M677 356q0 -185 -106 -294q-82 -85 -223 -85q-267 0 -300 289h96q11 -71 33 -113q22 -45 66.5 -69.5t103.5 -24.5q103 0 166.5 73.5t70.5 199.5h-367v82h364q-12 115 -72 180t-154 65q-95 0 -144 -46q-38 -35 -53 -110h-95q43 238 281 238q149 0 231 -91
q102 -111 102 -294z" />
    <glyph glyph-name="afii10048" unicode="&#x42e;" horiz-adv-x="1032" 
d="M958 353q0 -90 -33.5 -169.5t-92.5 -129.5q-47 -40 -93.5 -58.5t-109.5 -18.5q-149 0 -237.5 96.5t-96.5 258.5h-118v-332h-94v729h93v-315h121q16 151 101.5 239t226.5 88q158 0 245.5 -104.5t87.5 -283.5zM865 355q0 141 -62 222.5t-178 81.5q-113 0 -175.5 -81
t-62.5 -219t62.5 -219t176.5 -81q113 0 176 80.5t63 215.5z" />
    <glyph glyph-name="afii10049" unicode="&#x42f;" horiz-adv-x="702" 
d="M623 0h-93v314h-111l-277 -314h-110l273 314q-102 0 -164 61t-62 146q0 88 56 147q57 61 159 61h329v-729zM530 396v251h-227q-65 0 -97 -35q-34 -36 -34 -91q0 -54 34 -90q32 -35 97 -35h227z" />
    <glyph glyph-name="afii10065" unicode="&#x430;" 
d="M535 -14q-35 -9 -57 -9q-40 0 -60.5 18.5t-25.5 58.5q-84 -77 -178 -77q-79 0 -125.5 42t-46.5 113q0 102 92 140q25 10 53 15.5t115 16.5q49 6 68 19t19 39v22q0 38 -30.5 58t-86.5 20q-58 0 -88 -22.5t-35 -70.5h-84q3 72 36 109q55 61 174 61q97 0 147 -36.5
t50 -106.5v-308q0 -41 45 -41q9 0 18 2v-63zM389 165v94q-33 -15 -134 -29q-67 -10 -96.5 -32.5t-29.5 -63.5q0 -40 27 -62t76 -22q72 0 124 47q33 30 33 68z" />
    <glyph glyph-name="afii10066" unicode="&#x431;" 
d="M510 254q0 -129 -63.5 -203t-173.5 -74q-112 0 -174.5 74.5t-62.5 206.5q0 76 7.5 142t25.5 130t53 106.5t85 53.5l133 26q23 5 39.5 22t16.5 37h74q0 -29 -2 -44t-12 -35t-33.5 -33.5t-63.5 -22.5l-135 -29q-40 -10 -69 -49t-38 -93q44 70 155 70q113 0 175.5 -74.5
t62.5 -210.5zM423 255q0 97 -39.5 152t-110.5 55q-70 0 -110 -54.5t-40 -149.5t40 -149.5t110 -54.5q69 0 109.5 54.5t40.5 146.5z" />
    <glyph glyph-name="afii10067" unicode="&#x432;" horiz-adv-x="522" 
d="M468 150q0 -62 -41 -106t-114 -44h-243v524h219q73 0 112 -36q40 -37 40 -96q0 -81 -69 -115q50 -20 73 -50t23 -77zM357 376q0 20 -6.5 30.5t-22.5 23.5q-24 19 -76 19h-98v-142h98q51 0 76 18q12 9 16.5 14t8.5 14.5t4 22.5zM377 155q0 17 -0.5 23.5t-5.5 16t-16 16.5
q-31 20 -69 20h-132v-155h132q46 0 69 26q22 22 22 53z" />
    <glyph glyph-name="afii10068" unicode="&#x433;" horiz-adv-x="430" 
d="M380 448h-226v-448h-84v524h310v-76z" />
    <glyph glyph-name="afii10069" unicode="&#x434;" horiz-adv-x="602" 
d="M572 -120h-70v120h-402v-120h-70v184h57q35 4 58.5 82.5t23.5 174.5v203h339v-460h64v-184zM424 76v372h-172v-127q0 -155 -49 -245h221z" />
    <glyph glyph-name="afii10070" unicode="&#x435;" 
d="M513 234h-386q1 -72 28 -112q43 -68 126 -68q102 0 137 105h84q-16 -86 -75 -134t-149 -48q-110 0 -174 74.5t-64 203.5t65.5 206.5t174.5 77.5q74 0 130.5 -37t81.5 -101q21 -55 21 -167zM424 308q0 65 -42 109.5t-103 44.5q-63 0 -104 -43.5t-46 -116.5h294z" />
    <glyph glyph-name="afii10072" unicode="&#x436;" horiz-adv-x="837" 
d="M789 0h-106l-225 226v-226h-83v226l-225 -226h-106l274 274l-242 250h107l192 -201v201h83v-201l192 201h107l-242 -250z" />
    <glyph glyph-name="afii10073" unicode="&#x437;" horiz-adv-x="500" 
d="M459 143q0 -76 -58.5 -121t-157.5 -45q-203 0 -209 179h88q6 -47 24 -67q33 -35 104 -35q54 0 86 22.5t32 59.5q0 32 -22.5 58.5t-64.5 26.5h-89v76h62q48 0 72.5 26.5t24.5 59.5q0 36 -30 57.5t-81 21.5q-47 0 -75.5 -21.5t-29.5 -62.5h-88q1 76 52 118.5t138 42.5
q91 0 146 -43.5t55 -116.5q0 -75 -65 -112q86 -38 86 -124z" />
    <glyph glyph-name="afii10074" unicode="&#x438;" horiz-adv-x="567" 
d="M497 0h-83v413l-235 -413h-109v524h84v-413l235 413h108v-524z" />
    <glyph glyph-name="afii10075" unicode="&#x439;" horiz-adv-x="567" 
d="M497 0h-83v413l-235 -413h-109v524h84v-413l235 413h108v-524zM434 699q-11 -135 -152 -135q-86 0 -128 57q-20 28 -21 78h59q8 -66 92 -66q40 0 64 17t27 49h59z" />
    <glyph glyph-name="afii10076" unicode="&#x43a;" horiz-adv-x="510" 
d="M484 0h-106l-225 226v-226h-83v524h83v-212l212 212h96l-251 -250z" />
    <glyph glyph-name="afii10077" unicode="&#x43b;" horiz-adv-x="557" 
d="M487 0h-84v448h-172v-127q0 -63 -7.5 -117.5t-25 -105t-50.5 -79.5t-78 -29v80q37 0 57.5 70t20.5 181v203h339v-524z" />
    <glyph glyph-name="afii10078" unicode="&#x43c;" horiz-adv-x="618" 
d="M548 0h-84v363l-130 -323h-50l-130 323v-363h-84v524h104l135 -326l135 326h104v-524z" />
    <glyph glyph-name="afii10079" unicode="&#x43d;" horiz-adv-x="558" 
d="M488 0h-84v233h-250v-233h-84v524h84v-215h250v215h84v-524z" />
    <glyph glyph-name="afii10080" unicode="&#x43e;" 
d="M510 254q0 -129 -63.5 -203t-173.5 -74q-112 0 -174.5 74.5t-62.5 206.5t63 206.5t173 74.5q113 0 175.5 -74.5t62.5 -210.5zM423 255q0 97 -39.5 152t-110.5 55q-70 0 -110 -54.5t-40 -149.5t40 -149.5t110 -54.5q69 0 109.5 54.5t40.5 146.5z" />
    <glyph glyph-name="afii10081" unicode="&#x43f;" horiz-adv-x="557" 
d="M487 0h-84v448h-249v-448h-84v524h417v-524z" />
    <glyph glyph-name="afii10082" unicode="&#x440;" horiz-adv-x="576" 
d="M523 253q0 -125 -61.5 -200.5t-162.5 -75.5q-97 0 -161 78v-273h-84v742h77v-79q59 94 167 94q104 0 164.5 -77t60.5 -209zM436 255q0 94 -41.5 150t-110.5 56q-66 0 -106 -55.5t-40 -147.5t40 -147.5t106 -55.5q68 0 110 55.5t42 144.5z" />
    <glyph glyph-name="afii10083" unicode="&#x441;" horiz-adv-x="500" 
d="M477 180q-8 -96 -64 -149.5t-150 -53.5q-107 0 -169.5 74.5t-62.5 201.5q0 130 63.5 208t169.5 78q115 0 172 -78q29 -43 35 -113h-84q-8 55 -40 84.5t-84 29.5q-68 0 -106.5 -55.5t-38.5 -153.5q0 -93 39 -146t108 -53q107 0 128 126h84z" />
    <glyph glyph-name="afii10084" unicode="&#x442;" horiz-adv-x="496" 
d="M432 448h-144v-448h-84v448h-144v76h372v-76z" />
    <glyph glyph-name="afii10085" unicode="&#x443;" horiz-adv-x="500" 
d="M478 524l-233 -634q-21 -57 -57 -83q-34 -25 -78 -25q-31 0 -56 13v75q27 -6 44 -6q48 0 67 51l32 83l-177 526h89l134 -408l145 408h90z" />
    <glyph glyph-name="afii10086" unicode="&#x444;" horiz-adv-x="912" 
d="M850 253q0 -127 -54.5 -201.5t-154.5 -74.5q-49 0 -80 17.5t-66 60.5v-273h-83v278q-31 -45 -62.5 -64t-84.5 -19q-101 0 -152.5 72t-51.5 203q0 134 53.5 210.5t154.5 76.5q94 0 143 -94v229h83v-229q45 94 145 94q102 0 156 -76t54 -210zM763 255q0 96 -35 151t-102 55
q-64 0 -97.5 -54t-33.5 -149t33.5 -149t97.5 -54q67 0 102 54t35 146zM412 255q0 97 -33 151.5t-98 54.5q-67 0 -100 -54.5t-33 -148.5q0 -95 33 -149t100 -54q64 0 97.5 53.5t33.5 146.5z" />
    <glyph glyph-name="afii10087" unicode="&#x445;" horiz-adv-x="500" 
d="M473 0h-97l-131 201l-133 -201h-95l185 267l-175 257h95l126 -190l126 190h94l-176 -253z" />
    <glyph glyph-name="afii10088" unicode="&#x446;" horiz-adv-x="578" 
d="M548 -120h-70v120h-408v524h84v-448h249v448h84v-460h61v-184z" />
    <glyph glyph-name="afii10089" unicode="&#x447;" horiz-adv-x="520" 
d="M450 0h-84v191h-141q-65 0 -110 38t-45 105v190h84v-187q0 -70 68 -70h144v257h84v-524z" />
    <glyph glyph-name="afii10090" unicode="&#x448;" horiz-adv-x="692" 
d="M622 0h-552v524h84v-448h150v448h84v-448h150v448h84v-524z" />
    <glyph glyph-name="afii10091" unicode="&#x449;" horiz-adv-x="712" 
d="M682 -120h-70v120h-542v524h84v-448h150v448h84v-448h150v448h84v-460h60v-184z" />
    <glyph glyph-name="afii10092" unicode="&#x44a;" horiz-adv-x="734" 
d="M653 167q0 -73 -47 -120t-120 -47h-246v448h-183v76h267v-183h162q74 0 120.5 -47t46.5 -127zM562 164q0 53 -28 77t-86 24h-124v-189h124q66 0 90 23.5t24 64.5z" />
    <glyph glyph-name="afii10093" unicode="&#x44b;" horiz-adv-x="690" 
d="M483 167q0 -73 -47 -120t-120 -47h-246v524h84v-183h162q75 0 121 -47t46 -127zM392 164q0 53 -28 77t-86 24h-124v-189h124q66 0 90 23.5t24 64.5zM620 0h-83v524h83v-524z" />
    <glyph glyph-name="afii10094" unicode="&#x44c;" horiz-adv-x="552" 
d="M483 167q0 -73 -47 -120t-120 -47h-246v524h84v-183h162q75 0 121 -47t46 -127zM392 164q0 53 -28 77t-86 24h-124v-189h124q66 0 90 23.5t24 64.5z" />
    <glyph glyph-name="afii10095" unicode="&#x44d;" horiz-adv-x="500" 
d="M477 253q0 -127 -62.5 -201.5t-169.5 -74.5q-94 0 -150 53.5t-64 149.5h84q21 -126 128 -126q65 0 103.5 47t43.5 131h-227v77h224q-11 73 -47.5 113t-94.5 40q-52 0 -84 -29.5t-40 -84.5h-84q6 70 35 113q57 78 172 78q106 0 169.5 -78t63.5 -208z" />
    <glyph glyph-name="afii10096" unicode="&#x44e;" horiz-adv-x="758" 
d="M721 254q0 -129 -63.5 -203t-173.5 -74q-55 0 -98.5 19t-68.5 47t-41.5 64t-22 67t-5.5 59h-94v-233h-84v524h84v-215h96q0 18 5 42.5t21 58.5t40.5 62t68 47.5t98.5 19.5q113 0 175.5 -74.5t62.5 -210.5zM634 255q0 97 -39.5 152t-110.5 55q-70 0 -110 -54.5t-40 -149.5
t40 -149.5t110 -54.5q69 0 109.5 54.5t40.5 146.5z" />
    <glyph glyph-name="afii10097" unicode="&#x44f;" horiz-adv-x="543" 
d="M473 0h-84v218h-69l-203 -218h-103l205 221q-67 6 -108 44t-41 110q0 62 41 106q40 43 114 43h248v-524zM389 294v155h-137q-46 0 -69 -26q-22 -22 -22 -53q0 -17 0.5 -23.5t5.5 -16t16 -16.5q31 -20 69 -20h137z" />
    <glyph glyph-name="uni0450" unicode="&#x450;" 
d="M347 592h-60l-149 148h113zM513 234h-386q1 -72 28 -112q43 -68 126 -68q102 0 137 105h84q-16 -86 -75 -134t-149 -48q-110 0 -174 74.5t-64 203.5t65.5 206.5t174.5 77.5q74 0 130.5 -37t81.5 -101q21 -55 21 -167zM424 308q0 65 -42 109.5t-103 44.5q-63 0 -104 -43.5
t-46 -116.5h294z" />
    <glyph glyph-name="afii10071" unicode="&#x451;" 
d="M257 613h-104v103h104v-103zM419 613h-104v103h104v-103zM513 234h-386q1 -72 28 -112q43 -68 126 -68q102 0 137 105h84q-16 -86 -75 -134t-149 -48q-110 0 -174 74.5t-64 203.5t65.5 206.5t174.5 77.5q74 0 130.5 -37t81.5 -101q21 -55 21 -167zM424 308
q0 65 -42 109.5t-103 44.5q-63 0 -104 -43.5t-46 -116.5h294z" />
    <glyph glyph-name="afii10099" unicode="&#x452;" horiz-adv-x="582" 
d="M512 0q0 -66 -44.5 -104.5t-120.5 -38.5h-26v73q42 0 74 24q34 24 34 79v291q0 55 -34 79q-32 24 -74 24q-64 0 -103 -48.5t-39 -128.5v-250h-83v588h-81v70h81v71h83v-71h190v-70h-190v-175q37 48 74.5 67.5t93.5 19.5q76 0 120.5 -38.5t44.5 -104.5v-357z" />
    <glyph glyph-name="afii10100" unicode="&#x453;" horiz-adv-x="430" 
d="M365 448h-211v-448h-84v524h295v-76zM322 712l-149 -148h-60l96 148h113z" />
    <glyph glyph-name="afii10101" unicode="&#x454;" horiz-adv-x="500" 
d="M477 180q-8 -96 -64 -149.5t-150 -53.5q-107 0 -169.5 74.5t-62.5 201.5q0 130 63.5 208t169.5 78q115 0 172 -78q29 -43 35 -113h-84q-8 55 -40 84.5t-84 29.5q-58 0 -94.5 -40t-47.5 -113h223v-77h-226q5 -84 43.5 -131t103.5 -47q107 0 128 126h84z" />
    <glyph glyph-name="afii10102" unicode="&#x455;" horiz-adv-x="500" 
d="M459 143q0 -76 -58.5 -121t-157.5 -45q-203 0 -209 179h88q6 -47 24 -67q33 -35 104 -35q55 0 88.5 22.5t33.5 59.5q0 29 -19 46t-62 27l-78 19q-93 22 -129.5 55.5t-36.5 95.5q0 73 55 116.5t146 43.5t140 -42t50 -119h-88q-3 84 -105 84q-51 0 -81 -21.5t-30 -57.5
q0 -28 23 -45.5t74 -29.5l80 -19q78 -19 113 -53.5t35 -92.5z" />
    <glyph glyph-name="afii10103" unicode="&#x456;" horiz-adv-x="222" 
d="M150 0h-83v524h83v-524zM150 624h-84v105h84v-105z" />
    <glyph glyph-name="afii10104" unicode="&#x457;" horiz-adv-x="278" 
d="M107 605h-104v103h104v-103zM269 605h-104v103h104v-103zM178 0h-84v524h84v-524z" />
    <glyph glyph-name="afii10105" unicode="&#x458;" horiz-adv-x="222" 
d="M153 -109q0 -109 -143 -109q-13 0 -28 3v71l20 -1q38 0 53 15t15 54v600h83v-633zM153 624h-83v105h83v-105z" />
    <glyph glyph-name="afii10106" unicode="&#x459;" horiz-adv-x="884" 
d="M815 167q0 -73 -47 -120t-120 -47h-245v448h-172q1 -29 0 -64t-1.5 -72t-5 -74.5t-11 -72t-19 -65t-29 -52.5t-41 -35t-54.5 -13v80q19 0 33 14t22 48.5t13 65t7 91t2.5 97.5t0.5 111v17h338v-183h113q216 0 216 -174zM724 164q0 53 -28 77t-86 24h-124v-189h124
q66 0 90 23.5t24 64.5z" />
    <glyph glyph-name="afii10107" unicode="&#x45a;" horiz-adv-x="885" 
d="M816 167q0 -73 -47 -120t-120 -47h-245v233h-250v-233h-84v524h84v-215h250v215h83v-183h113q216 0 216 -174zM725 164q0 53 -28 77t-86 24h-124v-189h124q66 0 90 23.5t24 64.5z" />
    <glyph glyph-name="afii10108" unicode="&#x45b;" horiz-adv-x="582" 
d="M512 0h-83v324q0 55 -34 79q-32 24 -74 24q-64 0 -103 -48.5t-39 -128.5v-250h-83v588h-81v70h81v71h83v-71h190v-70h-190v-175q37 48 74.5 67.5t93.5 19.5q76 0 120.5 -38.5t44.5 -104.5v-357z" />
    <glyph glyph-name="afii10109" unicode="&#x45c;" horiz-adv-x="500" 
d="M502 0h-103l-258 216v-216h-83v524h83v-222l222 222h107l-272 -260zM368 712l-149 -148h-60l96 148h113z" />
    <glyph glyph-name="uni045D" unicode="&#x45d;" 
d="M487 0h-83v413l-235 -413h-99v524h84v-413l235 413h98v-524zM383 564h-60l-149 148h113z" />
    <glyph glyph-name="afii10110" unicode="&#x45e;" horiz-adv-x="500" 
d="M399 699q-11 -135 -152 -135q-86 0 -128 57q-20 28 -21 78h59q7 -66 92 -66q40 0 64 17t27 49h59zM478 524l-233 -634q-22 -57 -57 -83q-34 -25 -78 -25q-31 0 -56 13v75q27 -6 44 -6q26 0 41.5 11.5t25.5 39.5l32 83l-177 526h89l134 -408l145 408h90z" />
    <glyph glyph-name="afii10193" unicode="&#x45f;" 
d="M488 0h-174v-120h-70v120h-174v524h84v-448h250v448h84v-524z" />
    <glyph glyph-name="uni048C" unicode="&#x48c;" horiz-adv-x="667" 
d="M530 207q0 55 -34 91q-32 35 -97 35h-227v-251h227q65 0 97 35q34 36 34 90zM623 208q0 -88 -56 -147q-57 -61 -159 -61h-329v539h-89v70h89v120h93v-120h92v-70h-92v-124h180q246 0 271 -207z" />
    <glyph glyph-name="uni048D" unicode="&#x48d;" horiz-adv-x="552" 
d="M397 147q0 18 -0.5 26t-5.5 19.5t-16 18.5q-31 20 -69 20h-152v-155h152q46 0 69 26q22 22 22 45zM488 150q0 -62 -41 -106t-114 -44h-263v382h-62v70h62v72h84v-72h72v-70h-72v-75h118q112 0 164 -38t52 -119z" />
    <glyph glyph-name="uni048E" unicode="&#x48e;" horiz-adv-x="667" 
d="M520 519q0 60 -37.5 94t-104.5 34h-194v-256h194q24 0 47 5l-54 54l50 50l68 -68q31 33 31 87zM617 515q0 -95 -60 -151l58 -58l-50 -50l-68 69q-36 -16 -84 -16h-229v-309h-93v729h301q108 0 166.5 -55.5t58.5 -158.5z" />
    <glyph glyph-name="uni048F" unicode="&#x48f;" 
d="M436 255q0 94 -41.5 150t-110.5 56q-66 0 -106 -55.5t-40 -147.5t40 -147.5t106 -55.5q33 0 61 14l-64 64l49 50l68 -68q38 55 38 140zM524 -11l-49 -50l-67 67q-47 -29 -109 -29q-97 0 -161 78v-273h-84v742h77v-79q59 94 167 94q104 0 164.5 -77t60.5 -209
q0 -127 -62 -201z" />
    <glyph glyph-name="afii10050" unicode="&#x490;" horiz-adv-x="611" 
d="M579 647h-396v-647h-93v729h396v96h93v-178z" />
    <glyph glyph-name="afii10098" unicode="&#x491;" horiz-adv-x="430" 
d="M365 448h-211v-448h-84v524h211v105h84v-181z" />
    <glyph glyph-name="uni0492" unicode="&#x492;" horiz-adv-x="611" 
d="M568 647h-396v-154h106v-70h-106v-423h-93v423h-75v70h75v236h489v-82z" />
    <glyph glyph-name="uni0493" unicode="&#x493;" horiz-adv-x="430" 
d="M380 448h-226v-120h68v-70h-68v-258h-84v258h-62v70h62v196h310v-76z" />
    <glyph glyph-name="uni0494" unicode="&#x494;" horiz-adv-x="611" 
d="M579 647h-396v-178h172q92 0 138.5 -51t46.5 -141v-259q0 -90 -46.5 -141t-138.5 -51h-52v82h48q43 0 69.5 23.5t26.5 68.5v295q0 45 -26.5 68.5t-69.5 23.5h-168v-387h-93v729h489v-82z" />
    <glyph glyph-name="uni0495" unicode="&#x495;" horiz-adv-x="490" 
d="M427 0q0 -66 -44.5 -104.5t-120.5 -38.5h-26v73q42 0 74 24q34 24 34 79v141q0 57 -18 80t-60 23q-61 0 -86.5 -45.5t-25.5 -131.5v-100h-84v524h295v-76h-211v-185q16 48 48.5 67.5t89.5 19.5q73 0 104 -36.5t31 -106.5v-207z" />
    <glyph glyph-name="uni0496" unicode="&#x496;" horiz-adv-x="1023" 
d="M948 -135h-80v135h-30l-286 324v-324h-93v324l-286 -324h-110l325 375l-287 354h120l238 -308v308h93v-308l238 308h120l-287 -354l261 -301h64v-209z" />
    <glyph glyph-name="uni0497" unicode="&#x497;" horiz-adv-x="837" 
d="M819 -120h-70v120h-33l-258 216v-216h-83v216l-258 -216h-103l304 264l-272 260h107l222 -222v222h83v-222l222 222h107l-272 -260l230 -200h74v-184z" />
    <glyph glyph-name="uni0498" unicode="&#x498;" horiz-adv-x="667" 
d="M621 200q0 -47 -21.5 -92.5t-58.5 -74.5q-61 -46 -166 -55q54 -34 54 -89q0 -57 -63 -81q-36 -13 -69 -13q-28 0 -76 10v45q26 -10 63 -10q72 0 72 54q0 26 -12.5 44.5t-45.5 39.5q-140 12 -207 103q-42 57 -43 151h88q-1 -65 38 -112q51 -61 168 -61q89 0 134 31
q23 17 37.5 44.5t14.5 56.5q0 46 -48 88t-115 42h-108v82h88q63 0 110.5 45.5t47.5 91.5q0 55 -44.5 89t-118.5 34q-87 0 -134 -38.5t-48 -109.5h-88q1 107 71 166.5t196 59.5q120 0 189.5 -57.5t69.5 -156.5q0 -108 -105 -153q130 -49 130 -174z" />
    <glyph glyph-name="uni0499" unicode="&#x499;" horiz-adv-x="500" 
d="M459 143q0 -68 -47.5 -112t-130.5 -52q54 -37 54 -90q0 -57 -63 -81q-36 -13 -69 -13q-28 0 -76 10v45q26 -10 63 -10q72 0 72 54q0 26 -13 45t-46 40q-163 15 -169 177h88q6 -47 24 -67q33 -35 104 -35q54 0 86 22.5t32 59.5q0 31 -29.5 58t-72.5 27h-74v76h62
q48 0 72.5 26.5t24.5 59.5q0 36 -30 57.5t-81 21.5q-102 0 -105 -84h-88q1 77 50 119t140 42t146 -43.5t55 -116.5q0 -75 -65 -112q86 -38 86 -124z" />
    <glyph glyph-name="uni049A" unicode="&#x49a;" horiz-adv-x="667" 
d="M621 -135h-80v135h-44l-325 333v-333h-93v729h93v-306l305 306h111l-345 -345l305 -310h73v-209z" />
    <glyph glyph-name="uni049B" unicode="&#x49b;" horiz-adv-x="510" 
d="M484 -120h-70v120h-36l-225 226v-226h-83v524h83v-212l212 212h96l-251 -250l210 -210h64v-184z" />
    <glyph glyph-name="uni049C" unicode="&#x49c;" horiz-adv-x="667" 
d="M664 0h-116l-258 222v-63h-70v124l-48 41v-324h-93v729h93v-315l48 42v137h70v-77l245 213h120l-365 -314v-82z" />
    <glyph glyph-name="uni049D" unicode="&#x49d;" horiz-adv-x="500" 
d="M502 0h-103l-139 116v-42h-70v101l-49 41v-216h-83v524h83v-222l49 49v107h70v-37l103 103h107l-210 -201v-113z" />
    <glyph glyph-name="uni049E" unicode="&#x49e;" horiz-adv-x="667" 
d="M658 0h-110l-376 324v-324h-93v553h-85v70h85v106h93v-106h96v-70h-96v-139l363 315h120l-412 -354z" />
    <glyph glyph-name="uni049F" unicode="&#x49f;" horiz-adv-x="500" 
d="M502 0h-103l-258 216v-216h-83v408h-60v70h60v46h83v-46h71v-70h-71v-106l222 222h107l-272 -260z" />
    <glyph glyph-name="uni04A0" unicode="&#x4a0;" horiz-adv-x="900" 
d="M891 0h-110l-376 324v-324h-93v647h-231v82h324v-315l363 315h120l-412 -354z" />
    <glyph glyph-name="uni04A1" unicode="&#x4a1;" horiz-adv-x="683" 
d="M685 0h-103l-258 216v-216h-83v448h-184v76h267v-222l222 222h107l-272 -260z" />
    <glyph glyph-name="uni04A2" unicode="&#x4a2;" horiz-adv-x="722" 
d="M711 -135h-80v135h-81v332h-373v-332h-94v729h93v-315h374v315h94v-655h67v-209z" />
    <glyph glyph-name="uni04A3" unicode="&#x4a3;" 
d="M548 -120h-70v120h-74v233h-250v-233h-84v524h84v-215h250v215h84v-460h60v-184z" />
    <glyph glyph-name="uni04A4" unicode="&#x4a4;" horiz-adv-x="1000" 
d="M968 647h-324v-647h-94v332h-373v-332h-94v729h93v-315h374v315h418v-82z" />
    <glyph glyph-name="uni04A5" unicode="&#x4a5;" horiz-adv-x="764" 
d="M699 448h-211v-448h-84v233h-250v-233h-84v524h84v-215h250v215h295v-76z" />
    <glyph glyph-name="uni04A6" unicode="&#x4a6;" horiz-adv-x="1061" 
d="M1001 18q0 -90 -46.5 -141t-138.5 -51h-52v82h48q43 0 69.5 23.5t26.5 68.5v295q0 45 -26.5 68.5t-69.5 23.5h-168v-387h-94v647h-373v-647h-94v729h561v-260h172q92 0 138.5 -51t46.5 -141v-259z" />
    <glyph glyph-name="uni04A7" unicode="&#x4a7;" horiz-adv-x="826" 
d="M760 0q0 -66 -44.5 -104.5t-120.5 -38.5h-26v73q42 0 74 24q34 24 34 79v141q0 57 -18 80t-60 23q-61 0 -86.5 -45.5t-25.5 -131.5v-100h-84v448h-249v-448h-84v524h417v-261q16 48 48.5 67.5t89.5 19.5q73 0 104 -36.5t31 -106.5v-207z" />
    <glyph glyph-name="uni04A8" unicode="&#x4a8;" horiz-adv-x="722" 
d="M677 266q-33 -289 -300 -289q-141 0 -223 85q-106 109 -106 294q0 183 102 294q82 91 231 91q238 0 281 -238h-95q-15 75 -53 110q-49 46 -144 46q-106 0 -167.5 -81t-61.5 -221q0 -137 64 -217.5t173 -80.5q59 0 103.5 24.5t66.5 69.5q22 42 33 113h96z" />
    <glyph glyph-name="uni04A9" unicode="&#x4a9;" horiz-adv-x="500" 
d="M477 180q-8 -96 -64 -149.5t-150 -53.5q-107 0 -169.5 74.5t-62.5 201.5q0 130 63.5 208t169.5 78q115 0 172 -78q29 -43 35 -113h-84q-8 55 -40 84.5t-84 29.5q-68 0 -106.5 -55.5t-38.5 -153.5q0 -93 39 -146t108 -53q107 0 128 126h84z" />
    <glyph glyph-name="uni04AA" unicode="&#x4aa;" horiz-adv-x="722" 
d="M677 266q-32 -270 -265 -288q53 -36 53 -89q0 -57 -63 -81q-36 -13 -69 -13q-28 0 -76 10v45q26 -10 63 -10q72 0 72 54q0 26 -13 45t-46 40q-109 10 -179 83q-106 109 -106 294q0 183 102 294q82 91 231 91q238 0 281 -238h-95q-15 75 -53 110q-49 46 -144 46
q-106 0 -167.5 -81t-61.5 -221q0 -137 64 -217.5t173 -80.5q59 0 103.5 24.5t66.5 69.5q22 42 33 113h96z" />
    <glyph glyph-name="uni04AB" unicode="&#x4ab;" horiz-adv-x="500" 
d="M477 180q-7 -86 -53 -138t-124 -63q55 -36 55 -90q0 -57 -63 -81q-36 -13 -69 -13q-28 0 -76 10v45q26 -10 63 -10q72 0 72 54q0 27 -13 46t-48 40q-88 15 -139 87.5t-51 185.5q0 130 63.5 208t169.5 78q115 0 172 -78q29 -43 35 -113h-84q-8 55 -40 84.5t-84 29.5
q-68 0 -106.5 -55.5t-38.5 -153.5q0 -93 39 -146t108 -53q107 0 128 126h84z" />
    <glyph glyph-name="uni04AC" unicode="&#x4ac;" horiz-adv-x="611" 
d="M593 647h-239v-573h67v-209h-80v135h-80v647h-240v82h572v-82z" />
    <glyph glyph-name="uni04AD" unicode="&#x4ad;" horiz-adv-x="496" 
d="M432 448h-144v-384h60v-184h-70v120h-74v448h-144v76h372v-76z" />
    <glyph glyph-name="uni04AE" unicode="&#x4ae;" horiz-adv-x="667" 
d="M661 729l-274 -443v-286h-93v286l-281 443h115l214 -355l208 355h111z" />
    <glyph glyph-name="uni04AF" unicode="&#x4af;" horiz-adv-x="667" 
d="M621 524l-234 -438v-286h-93v286l-241 438h115l174 -350l168 350h111z" />
    <glyph glyph-name="uni04B0" unicode="&#x4b0;" horiz-adv-x="667" 
d="M661 729l-274 -443v-26h220v-70h-220v-190h-93v190h-220v70h220v26l-281 443h115l214 -355l208 355h111z" />
    <glyph glyph-name="uni04B1" unicode="&#x4b1;" horiz-adv-x="667" 
d="M621 524l-234 -438h220v-70h-220v-216h-93v216h-220v70h220l-241 438h115l174 -350l168 350h111z" />
    <glyph glyph-name="uni04B2" unicode="&#x4b2;" horiz-adv-x="667" 
d="M649 -135h-80v135h-35l-199 304l-200 -304h-113l258 374l-242 355h113l187 -286l188 286h111l-246 -355l207 -300h51v-209z" />
    <glyph glyph-name="uni04B3" unicode="&#x4b3;" horiz-adv-x="500" 
d="M473 -120h-70v120h-27l-131 201l-133 -201h-95l185 267l-175 257h95l126 -190l126 190h94l-176 -253l138 -207h43v-184z" />
    <glyph glyph-name="uni04B4" unicode="&#x4b4;" horiz-adv-x="942" 
d="M904 -135h-80v135h-573v647h-230v82h551v-82h-227v-565h373v647h94v-655h92v-209z" />
    <glyph glyph-name="uni04B5" unicode="&#x4b5;" horiz-adv-x="732" 
d="M692 -120h-70v120h-428v448h-134v76h352v-76h-134v-372h249v448h84v-460h81v-184z" />
    <glyph glyph-name="uni04B6" unicode="&#x4b6;" horiz-adv-x="648" 
d="M636 -135h-80v135h-80v260h-212q-92 0 -138.5 51t-46.5 141v277h93v-295q0 -45 26.5 -68.5t69.5 -23.5h208v387h93v-655h67v-209z" />
    <glyph glyph-name="uni04B7" unicode="&#x4b7;" horiz-adv-x="520" 
d="M511 -120h-70v120h-75v191h-141q-65 0 -110 38t-45 105v190h84v-187q0 -70 68 -70h144v257h84v-460h61v-184z" />
    <glyph glyph-name="uni04B8" unicode="&#x4b8;" horiz-adv-x="648" 
d="M569 0h-93v260h-111v-125h-70v125h-31q-92 0 -138.5 51t-46.5 141v277h93v-295q0 -45 26.5 -68.5t69.5 -23.5h27v137h70v-137h111v387h93v-729z" />
    <glyph glyph-name="uni04B9" unicode="&#x4b9;" horiz-adv-x="520" 
d="M450 0h-84v191h-66v-93h-70v93h-5q-65 0 -110 38t-45 105v190h84v-187q0 -70 68 -70h8v103h70v-103h66v257h84v-524z" />
    <glyph glyph-name="uni04BA" unicode="&#x4ba;" horiz-adv-x="648" 
d="M569 0h-93v295q0 45 -26.5 68.5t-69.5 23.5h-208v-387h-93v729h93v-260h212q92 0 138.5 -51t46.5 -141v-277z" />
    <glyph glyph-name="uni04BB" unicode="&#x4bb;" horiz-adv-x="520" 
d="M450 0h-84v187q0 70 -68 70h-144v-257h-84v524h84v-191h141q65 0 110 -38t45 -105v-190z" />
    <glyph glyph-name="uni04BC" unicode="&#x4bc;" horiz-adv-x="927" 
d="M774 466q-12 79 -22 99q-22 45 -66.5 69.5t-103.5 24.5q-86 0 -144.5 -51t-80.5 -142h417zM882 384h-1h-96h-439q-1 -8 -1 -23q0 -140 61.5 -221t167.5 -81q95 0 144 46q38 35 53 110h95q-43 -238 -281 -238q-149 0 -231 91q-102 111 -102 294v22q-102 2 -153.5 60.5
t-51.5 141.5q0 78 38.5 124.5t101.5 46.5q70 0 103 -46q18 -27 21 -68h-50q-9 68 -74 68q-41 0 -64 -33t-23 -92q0 -56 23.5 -88t64.5 -32h74q23 116 96 190q82 85 223 85q299 0 300 -353z" />
    <glyph glyph-name="uni04BD" unicode="&#x4bd;" horiz-adv-x="716" 
d="M584 308q0 65 -42 109.5t-103 44.5q-63 0 -104 -43.5t-46 -116.5h294zM673 234h-386q1 -72 28 -112q43 -68 126 -68q102 0 137 105h84q-16 -86 -75 -134t-149 -48q-106 0 -169 68.5t-69 188.5q-79 1 -118.5 45.5t-39.5 102.5q0 52 25.5 83t67.5 31q46 0 69 -31
q11 -15 14 -45h-34q-6 46 -49 46q-28 0 -43 -22.5t-15 -61.5q0 -37 15.5 -58.5t42.5 -21.5h67q12 109 75.5 173t162.5 64q74 0 130.5 -37t81.5 -101q21 -55 21 -167z" />
    <glyph glyph-name="uni04BE" unicode="&#x4be;" horiz-adv-x="927" 
d="M774 466q-12 79 -22 99q-22 45 -66.5 69.5t-103.5 24.5q-86 0 -144.5 -51t-80.5 -142h417zM882 384h-1h-96h-439q-1 -8 -1 -23q0 -140 61.5 -221t167.5 -81q95 0 144 46q38 35 53 110h95q-40 -221 -245 -237q53 -36 53 -89q0 -57 -63 -81q-36 -13 -69 -13q-28 0 -76 10
v45q26 -10 63 -10q72 0 72 54q0 26 -13 45t-46 40q-119 12 -188 89q-102 111 -102 294v22q-102 2 -153.5 60.5t-51.5 141.5q0 78 38.5 124.5t101.5 46.5q70 0 103 -46q18 -27 21 -68h-50q-9 68 -74 68q-41 0 -64 -33t-23 -92q0 -56 23.5 -88t64.5 -32h74q23 116 96 190
q82 85 223 85q299 0 300 -353z" />
    <glyph glyph-name="uni04BF" unicode="&#x4bf;" horiz-adv-x="716" 
d="M584 308q0 65 -42 109.5t-103 44.5q-63 0 -104 -43.5t-46 -116.5h294zM673 234h-386q1 -72 28 -112q43 -68 126 -68q102 0 137 105h84q-14 -77 -64.5 -124.5t-126.5 -55.5q54 -35 54 -90q0 -57 -63 -81q-36 -13 -69 -13q-28 0 -76 10v45q26 -10 63 -10q72 0 72 54
q0 26 -13.5 45.5t-48.5 41.5q-85 15 -135 81t-55 172q-79 1 -118.5 45.5t-39.5 102.5q0 52 25.5 83t67.5 31q46 0 69 -31q11 -15 14 -45h-34q-6 46 -49 46q-28 0 -43 -22.5t-15 -61.5q0 -37 15.5 -58.5t42.5 -21.5h67q12 109 75.5 173t162.5 64q74 0 130.5 -37t81.5 -101
q21 -55 21 -167z" />
    <glyph glyph-name="uni04C0" unicode="&#x4c0;" horiz-adv-x="278" 
d="M194 0h-94v729h94v-729z" />
    <glyph glyph-name="uni04C1" unicode="&#x4c1;" horiz-adv-x="1023" 
d="M948 0h-110l-286 324v-324h-93v324l-286 -324h-110l325 375l-287 354h120l238 -308v308h93v-308l238 308h120l-287 -354zM656 904q-11 -135 -152 -135q-86 0 -128 57q-20 28 -21 78h59q8 -66 92 -66q40 0 64 17t27 49h59z" />
    <glyph glyph-name="uni04C2" unicode="&#x4c2;" horiz-adv-x="837" 
d="M819 0h-103l-258 216v-216h-83v216l-258 -216h-103l304 264l-272 260h107l222 -222v222h83v-222l222 222h107l-272 -260zM567 699q-11 -135 -152 -135q-86 0 -128 57q-20 28 -21 78h59q7 -66 92 -66q40 0 64 17t27 49h59z" />
    <glyph glyph-name="uni04C3" unicode="&#x4c3;" horiz-adv-x="667" 
d="M655 729l-412 -354h183q92 0 138.5 -51t46.5 -141v-165q0 -90 -46.5 -141t-138.5 -51h-52v82h48q43 0 69.5 23.5t26.5 68.5v201q0 45 -26.5 68.5t-69.5 23.5h-250v-293h-93v729h93v-315l363 315h120z" />
    <glyph glyph-name="uni04C4" unicode="&#x4c4;" horiz-adv-x="500" 
d="M470 524l-272 -260l77 1q76 0 120.5 -38.5t44.5 -104.5v-122q0 -66 -44.5 -104.5t-120.5 -38.5h-26v73q42 0 74 24q34 24 34 79v56q0 55 -34 79q-32 24 -74 24h-108v-192h-83v524h83v-222l222 222h107z" />
    <glyph glyph-name="uni04C7" unicode="&#x4c7;" horiz-adv-x="722" 
d="M644 18q0 -90 -47 -141t-139 -51h-52v82h48q43 0 69.5 23.5t26.5 68.5v332h-373v-332h-94v729h93v-315h374v315h94v-711z" />
    <glyph glyph-name="uni04C8" unicode="&#x4c8;" 
d="M488 0q0 -66 -44.5 -104.5t-120.5 -38.5h-26v73q42 0 74 24q33 23 33 79v200h-250v-233h-84v524h84v-215h250v215h84v-524z" />
    <glyph glyph-name="uni04CB" unicode="&#x4cb;" horiz-adv-x="648" 
d="M569 0h-80v-135h-80v209h67v186h-212q-92 0 -138.5 51t-46.5 141v277h93v-295q0 -45 26.5 -68.5t69.5 -23.5h208v387h93v-729z" />
    <glyph glyph-name="uni04CC" unicode="&#x4cc;" horiz-adv-x="520" 
d="M450 0h-75v-120h-70v184h61v127h-141q-65 0 -110 38t-45 105v190h84v-187q0 -70 68 -70h144v257h84v-524z" />
    <glyph glyph-name="uni04D0" unicode="&#x4d0;" horiz-adv-x="667" 
d="M486 904q-11 -135 -152 -135q-86 0 -128 57q-20 28 -21 78h59q7 -66 92 -66q40 0 64 17t27 49h59zM653 0h-104l-75 219h-281l-77 -219h-99l260 729h120zM448 297l-112 332l-120 -332h232z" />
    <glyph glyph-name="uni04D1" unicode="&#x4d1;" 
d="M419 699q-11 -135 -152 -135q-86 0 -128 57q-20 28 -21 78h59q7 -66 92 -66q40 0 64 17t27 49h59zM535 -14q-35 -9 -57 -9q-40 0 -60.5 18.5t-25.5 58.5q-84 -77 -178 -77q-79 0 -125.5 42t-46.5 113q0 102 92 140q25 10 53 15.5t115 16.5q49 6 68 19t19 39v22
q0 38 -30.5 58t-86.5 20q-58 0 -88 -22.5t-35 -70.5h-84q3 72 36 109q55 61 174 61q97 0 147 -36.5t50 -106.5v-308q0 -41 45 -41q9 0 18 2v-63zM389 165v94q-33 -15 -134 -29q-67 -10 -96.5 -32.5t-29.5 -63.5q0 -40 27 -62t76 -22q72 0 124 47q33 30 33 68z" />
    <glyph glyph-name="uni04D2" unicode="&#x4d2;" horiz-adv-x="667" 
d="M306 769h-104v103h104v-103zM468 769h-104v103h104v-103zM653 0h-104l-75 219h-281l-77 -219h-99l260 729h120zM448 297l-112 332l-120 -332h232z" />
    <glyph glyph-name="uni04D3" unicode="&#x4d3;" 
d="M240 564h-104v103h104v-103zM402 564h-104v103h104v-103zM535 -14q-35 -9 -57 -9q-40 0 -60.5 18.5t-25.5 58.5q-84 -77 -178 -77q-79 0 -125.5 42t-46.5 113q0 102 92 140q25 10 53 15.5t115 16.5q49 6 68 19t19 39v22q0 38 -30.5 58t-86.5 20q-58 0 -88 -22.5
t-35 -70.5h-84q3 72 36 109q55 61 174 61q97 0 147 -36.5t50 -106.5v-308q0 -41 45 -41q9 0 18 2v-63zM389 165v94q-33 -15 -134 -29q-67 -10 -96.5 -32.5t-29.5 -63.5q0 -40 27 -62t76 -22q72 0 124 47q33 30 33 68z" />
    <glyph glyph-name="uni04D4" unicode="&#x4d4;" horiz-adv-x="1000" 
d="M950 0h-482v214h-269l-85 -214h-103l299 729h622v-82h-371v-233h352v-82h-352v-250h389v-82zM468 296v351h-100l-138 -351h238z" />
    <glyph glyph-name="uni04D5" unicode="&#x4d5;" horiz-adv-x="889" 
d="M845 234h-386q1 -72 28 -112q43 -68 126 -68q101 0 138 105h84q-16 -85 -75 -133.5t-148 -48.5q-58 0 -105 22t-73 61l-16 27q-56 -58 -106.5 -84t-109.5 -26q-76 0 -122 42t-46 113q0 101 93 140q48 21 167 31q51 4 69 17t18 42v22q0 78 -118 78q-112 0 -122 -93h-84
q3 72 36 109q55 61 172 61q128 0 175 -82q27 38 73 60t100 22q73 0 129 -37t82 -101q21 -55 21 -167zM381 157v101q-33 -14 -134 -29q-68 -10 -97 -32t-29 -63q0 -39 27 -61.5t73 -22.5q61 0 111 38q49 38 49 69zM755 302q0 71 -40 115.5t-104 44.5q-63 0 -104 -43.5
t-46 -116.5h294z" />
    <glyph glyph-name="uni04D6" unicode="&#x4d6;" horiz-adv-x="667" 
d="M493 904q-11 -135 -152 -135q-86 0 -128 57q-20 28 -21 78h59q7 -66 92 -66q40 0 64 17t27 49h59zM613 0h-523v729h505v-82h-412v-233h397v-82h-397v-250h430v-82z" />
    <glyph glyph-name="uni04D7" unicode="&#x4d7;" 
d="M471 699q-11 -135 -152 -135q-86 0 -128 57q-20 28 -21 78h59q8 -66 92 -66q40 0 64 17t27 49h59zM513 234h-386q1 -72 28 -112q43 -68 126 -68q102 0 137 105h84q-16 -86 -75 -134t-149 -48q-110 0 -174 74.5t-64 203.5t65.5 206.5t174.5 77.5q74 0 130.5 -37t81.5 -101
q21 -55 21 -167zM424 308q0 65 -42 109.5t-103 44.5q-63 0 -104 -43.5t-46 -116.5h294z" />
    <glyph glyph-name="uni04D8" unicode="&#x4d8;" horiz-adv-x="722" 
d="M572 252h-417q12 -79 22 -99q22 -45 66.5 -69.5t103.5 -24.5q86 0 144.5 51t80.5 142zM677 356q0 -185 -106 -294q-82 -85 -223 -85q-299 0 -300 353l-1 4h1h96h439q1 8 1 23q0 140 -61.5 221t-167.5 81q-95 0 -144 -46q-38 -35 -53 -110h-95q43 238 281 238
q149 0 231 -91q102 -111 102 -294z" />
    <glyph glyph-name="afii10846" unicode="&#x4d9;" 
d="M513 261q0 -129 -65.5 -206.5t-174.5 -77.5q-74 0 -130.5 37t-81.5 101q-21 55 -21 167h386q-1 72 -28 112q-43 68 -126 68q-102 0 -137 -105h-84q16 86 75 134t149 48q110 0 174 -74.5t64 -203.5zM424 214h-294l-1 -6q0 -65 42 -109.5t103 -44.5q63 0 104 43.5t46 116.5
z" />
    <glyph glyph-name="uni04DA" unicode="&#x4da;" horiz-adv-x="722" 
d="M315 801h-104v103h104v-103zM477 801h-104v103h104v-103zM572 252h-417q12 -79 22 -99q22 -45 66.5 -69.5t103.5 -24.5q86 0 144.5 51t80.5 142zM677 356q0 -185 -106 -294q-82 -85 -223 -85q-299 0 -300 353l-1 4h1h96h439q1 8 1 23q0 140 -61.5 221t-167.5 81
q-95 0 -144 -46q-38 -35 -53 -110h-95q43 238 281 238q149 0 231 -91q102 -111 102 -294z" />
    <glyph glyph-name="uni04DB" unicode="&#x4db;" 
d="M246 599h-104v103h104v-103zM408 599h-104v103h104v-103zM513 261q0 -129 -65.5 -206.5t-174.5 -77.5q-74 0 -130.5 37t-81.5 101q-21 55 -21 167h386q-1 72 -28 112q-43 68 -126 68q-102 0 -137 -105h-84q16 86 75 134t149 48q110 0 174 -74.5t64 -203.5zM424 214h-294
l-1 -6q0 -65 42 -109.5t103 -44.5q63 0 104 43.5t46 116.5z" />
    <glyph glyph-name="uni04DC" unicode="&#x4dc;" horiz-adv-x="1023" 
d="M948 0h-110l-286 324v-324h-93v324l-286 -324h-110l325 375l-287 354h120l238 -308v308h93v-308l238 308h120l-287 -354zM477 769h-104v103h104v-103zM639 769h-104v103h104v-103z" />
    <glyph glyph-name="uni04DD" unicode="&#x4dd;" horiz-adv-x="837" 
d="M819 0h-103l-258 216v-216h-83v216l-258 -216h-103l304 264l-272 260h107l222 -222v222h83v-222l222 222h107l-272 -260zM387 564h-104v103h104v-103zM549 564h-104v103h104v-103z" />
    <glyph glyph-name="uni04DE" unicode="&#x4de;" horiz-adv-x="667" 
d="M621 200q0 -47 -21.5 -92.5t-58.5 -74.5q-73 -56 -205 -56q-169 0 -245 104q-42 57 -43 151h88q-1 -65 38 -112q51 -61 168 -61q89 0 134 31q23 17 37.5 44.5t14.5 56.5q0 46 -48 88t-115 42h-108v82h88q63 0 110.5 45.5t47.5 91.5q0 55 -44.5 89t-118.5 34
q-87 0 -134 -38.5t-48 -109.5h-88q1 107 71 166.5t196 59.5q120 0 189.5 -57.5t69.5 -156.5q0 -108 -105 -153q130 -49 130 -174zM301 769h-104v103h104v-103zM463 769h-104v103h104v-103z" />
    <glyph glyph-name="uni04DF" unicode="&#x4df;" horiz-adv-x="500" 
d="M459 143q0 -76 -58.5 -121t-157.5 -45q-203 0 -209 179h88q6 -47 24 -67q33 -35 104 -35q54 0 86 22.5t32 59.5q0 31 -29.5 58t-72.5 27h-74v76h62q48 0 72.5 26.5t24.5 59.5q0 36 -30 57.5t-81 21.5q-102 0 -105 -84h-88q1 77 50 119t140 42t146 -43.5t55 -116.5
q0 -75 -65 -112q86 -38 86 -124zM214 564h-104v103h104v-103zM376 564h-104v103h104v-103z" />
    <glyph glyph-name="uni04E0" unicode="&#x4e0;" horiz-adv-x="667" 
d="M621 200q0 -47 -21.5 -92.5t-58.5 -74.5q-73 -56 -205 -56q-169 0 -245 104q-42 57 -43 151h88q-1 -65 38 -112q51 -61 168 -61q89 0 134 31q23 17 37.5 44.5t14.5 56.5q0 46 -48 88t-115 42h-108v82h88q63 0 110.5 45.5t47.5 91.5q0 55 -44.5 89t-118.5 34
q-87 0 -134 -38.5t-48 -109.5h-88q1 107 71 166.5t196 59.5q120 0 189.5 -57.5t69.5 -156.5q0 -108 -105 -153q130 -49 130 -174z" />
    <glyph glyph-name="uni04E1" unicode="&#x4e1;" horiz-adv-x="500" 
d="M459 143q0 -76 -58.5 -121t-157.5 -45q-203 0 -209 179h88q6 -47 24 -67q33 -35 104 -35q54 0 86 22.5t32 59.5q0 31 -29.5 58t-72.5 27h-74v76h62q48 0 72.5 26.5t24.5 59.5q0 36 -30 57.5t-81 21.5q-102 0 -105 -84h-88q1 77 50 119t140 42t146 -43.5t55 -116.5
q0 -75 -65 -112q86 -38 86 -124z" />
    <glyph glyph-name="uni04E2" unicode="&#x4e2;" horiz-adv-x="722" 
d="M646 0h-88v591l-377 -591h-105v729h88v-596l381 596h101v-729zM498 769h-274v70h274v-70z" />
    <glyph glyph-name="uni04E3" unicode="&#x4e3;" 
d="M487 0h-83v413l-235 -413h-99v524h84v-413l235 413h98v-524zM416 564h-274v70h274v-70z" />
    <glyph glyph-name="uni04E4" unicode="&#x4e4;" horiz-adv-x="722" 
d="M646 0h-88v591l-377 -591h-105v729h88v-596l381 596h101v-729zM332 769h-104v103h104v-103zM494 769h-104v103h104v-103z" />
    <glyph glyph-name="uni04E5" unicode="&#x4e5;" 
d="M487 0h-83v413l-235 -413h-99v524h84v-413l235 413h98v-524zM250 564h-104v103h104v-103zM412 564h-104v103h104v-103z" />
    <glyph glyph-name="uni04E6" unicode="&#x4e6;" horiz-adv-x="778" 
d="M361 769h-104v103h104v-103zM523 769h-104v103h104v-103zM742 353q0 -90 -33.5 -169.5t-92.5 -129.5q-91 -77 -226 -77q-158 0 -255 105.5t-97 276.5t97 276.5t254 105.5q160 0 256.5 -106t96.5 -282zM649 355q0 138 -71 221t-189 83q-116 0 -187 -82.5t-71 -217.5
t71.5 -217.5t187.5 -82.5t187.5 82t71.5 214z" />
    <glyph glyph-name="uni04E7" unicode="&#x4e7;" 
d="M244 564h-104v103h104v-103zM406 564h-104v103h104v-103zM510 254q0 -129 -63.5 -203t-173.5 -74q-112 0 -174.5 74.5t-62.5 206.5t63 206.5t173 74.5q113 0 175.5 -74.5t62.5 -210.5zM423 255q0 97 -39.5 152t-110.5 55q-70 0 -110 -54.5t-40 -149.5t40 -149.5
t110 -54.5q69 0 109.5 54.5t40.5 146.5z" />
    <glyph glyph-name="uni04E8" unicode="&#x4e8;" horiz-adv-x="778" 
d="M742 353q0 -90 -33.5 -169.5t-92.5 -129.5q-91 -77 -226 -77q-158 0 -255 105.5t-97 276.5t97 276.5t254 105.5q160 0 256.5 -106t96.5 -282zM648 385q-8 125 -77.5 199.5t-181.5 74.5q-109 0 -179.5 -75t-77.5 -199h516zM647 315h-514q12 -117 81.5 -186.5t175.5 -69.5
t176 70t81 186z" />
    <glyph glyph-name="uni04E9" unicode="&#x4e9;" 
d="M510 254q0 -129 -63.5 -203t-173.5 -74q-112 0 -174.5 74.5t-62.5 206.5t63 206.5t173 74.5q113 0 175.5 -74.5t62.5 -210.5zM422 290q-8 82 -46.5 127t-102.5 45t-103 -45.5t-46 -126.5h298zM421 220h-296q8 -78 47 -122t101 -44t101 44t47 122z" />
    <glyph glyph-name="uni04EA" unicode="&#x4ea;" horiz-adv-x="778" 
d="M742 353q0 -90 -33.5 -169.5t-92.5 -129.5q-91 -77 -226 -77q-158 0 -255 105.5t-97 276.5t97 276.5t254 105.5q160 0 256.5 -106t96.5 -282zM648 385q-8 125 -77.5 199.5t-181.5 74.5q-109 0 -179.5 -75t-77.5 -199h516zM647 315h-514q12 -117 81.5 -186.5t175.5 -69.5
t176 70t81 186zM361 769h-104v103h104v-103zM523 769h-104v103h104v-103z" />
    <glyph glyph-name="uni04EB" unicode="&#x4eb;" 
d="M510 254q0 -129 -63.5 -203t-173.5 -74q-112 0 -174.5 74.5t-62.5 206.5t63 206.5t173 74.5q113 0 175.5 -74.5t62.5 -210.5zM422 290q-8 82 -46.5 127t-102.5 45t-103 -45.5t-46 -126.5h298zM421 220h-296q8 -78 47 -122t101 -44t101 44t47 122zM244 564h-104v103h104
v-103zM406 564h-104v103h104v-103z" />
    <glyph glyph-name="uni04EC" unicode="&#x4ec;" horiz-adv-x="722" 
d="M677 356q0 -185 -106 -294q-82 -85 -223 -85q-267 0 -300 289h96q11 -71 33 -113q22 -45 66.5 -69.5t103.5 -24.5q103 0 166.5 73.5t70.5 199.5h-367v82h364q-12 115 -72 180t-154 65q-95 0 -144 -46q-38 -35 -53 -110h-95q43 238 281 238q149 0 231 -91
q102 -111 102 -294zM388 769h-104v103h104v-103zM550 769h-104v103h104v-103z" />
    <glyph glyph-name="uni04ED" unicode="&#x4ed;" horiz-adv-x="500" 
d="M477 253q0 -127 -62.5 -201.5t-169.5 -74.5q-94 0 -150 53.5t-64 149.5h84q21 -126 128 -126q65 0 103.5 47t43.5 131h-227v77h224q-11 73 -47.5 113t-94.5 40q-52 0 -84 -29.5t-40 -84.5h-84q6 70 35 113q57 78 172 78q106 0 169.5 -78t63.5 -208zM183 564h-104v103h104
v-103zM345 564h-104v103h104v-103z" />
    <glyph glyph-name="uni04EE" unicode="&#x4ee;" horiz-adv-x="650" 
d="M619 729l-367 -729h-113l129 244l-242 485h113l185 -379l184 379h111zM460 769h-274v70h274v-70z" />
    <glyph glyph-name="uni04EF" unicode="&#x4ef;" horiz-adv-x="500" 
d="M386 564h-274v70h274v-70zM478 524l-233 -634q-22 -57 -57 -83q-34 -25 -78 -25q-31 0 -56 13v75q27 -6 44 -6q26 0 41.5 11.5t25.5 39.5l32 83l-177 526h89l134 -408l145 408h90z" />
    <glyph glyph-name="uni04F0" unicode="&#x4f0;" horiz-adv-x="650" 
d="M619 729l-367 -729h-113l129 244l-242 485h113l185 -379l184 379h111zM294 769h-104v103h104v-103zM456 769h-104v103h104v-103z" />
    <glyph glyph-name="uni04F1" unicode="&#x4f1;" horiz-adv-x="500" 
d="M220 564h-104v103h104v-103zM382 564h-104v103h104v-103zM478 524l-233 -634q-22 -57 -57 -83q-34 -25 -78 -25q-31 0 -56 13v75q27 -6 44 -6q26 0 41.5 11.5t25.5 39.5l32 83l-177 526h89l134 -408l145 408h90z" />
    <glyph glyph-name="uni04F2" unicode="&#x4f2;" horiz-adv-x="650" 
d="M619 729l-367 -729h-113l129 244l-242 485h113l185 -379l184 379h111zM340 919l-149 -150h-60l96 150h113zM514 919l-149 -150h-60l96 150h113z" />
    <glyph glyph-name="uni04F3" unicode="&#x4f3;" horiz-adv-x="500" 
d="M267 714l-149 -150h-60l96 150h113zM441 714l-149 -150h-60l96 150h113zM478 524l-233 -634q-22 -57 -57 -83q-34 -25 -78 -25q-31 0 -56 13v75q27 -6 44 -6q26 0 41.5 11.5t25.5 39.5l32 83l-177 526h89l134 -408l145 408h90z" />
    <glyph glyph-name="uni04F4" unicode="&#x4f4;" horiz-adv-x="648" 
d="M295 801h-104v103h104v-103zM457 801h-104v103h104v-103zM569 0h-93v260h-212q-92 0 -138.5 51t-46.5 141v277h93v-295q0 -45 26.5 -68.5t69.5 -23.5h208v387h93v-729z" />
    <glyph glyph-name="uni04F5" unicode="&#x4f5;" horiz-adv-x="520" 
d="M231 599h-104v103h104v-103zM393 599h-104v103h104v-103zM450 0h-84v191h-141q-65 0 -110 38t-45 105v190h84v-187q0 -70 68 -70h144v257h84v-524z" />
    <glyph glyph-name="uni04F8" unicode="&#x4f8;" horiz-adv-x="886" 
d="M804 0h-94v729h94v-729zM623 208q0 -88 -56 -147q-57 -61 -159 -61h-329v729h93v-314h180q246 0 271 -207zM530 207q0 55 -34 91q-32 35 -97 35h-227v-251h227q65 0 97 35q34 36 34 90zM412 769h-104v103h104v-103zM574 769h-104v103h104v-103z" />
    <glyph glyph-name="uni04F9" unicode="&#x4f9;" horiz-adv-x="748" 
d="M661 0h-83v524h83v-524zM488 150q0 -62 -41 -106t-114 -44h-263v524h84v-217h118q111 0 163.5 -38.5t52.5 -118.5zM397 147q0 18 -0.5 26t-5.5 19.5t-16 18.5q-31 20 -69 20h-152v-155h152q46 0 69 26q22 22 22 45zM336 564h-104v103h104v-103zM498 564h-104v103h104
v-103z" />
    <glyph glyph-name="baht" unicode="&#xe3f;" horiz-adv-x="667" 
d="M623 208q0 -91 -59 -149.5t-156 -58.5h-50v-83h-54v83h-225v729h225v83h54v-83h17q101 0 158.5 -51.5t57.5 -133.5q0 -112 -101 -159q70 -27 101.5 -69t31.5 -108zM498 531q0 113 -140 116v-232q140 3 140 116zM304 647h-132v-232h132v232zM530 207q0 56 -33.5 91
t-97.5 35h-41v-251h41q63 0 97 35t34 90zM304 333h-132v-251h132v251z" />
    <glyph glyph-name="Ddotbelow" unicode="&#x1e0c;" horiz-adv-x="722" 
d="M667 365q0 -170 -79.5 -267.5t-217.5 -97.5h-281v729h281q139 0 218 -97t79 -267zM574 364q0 139 -56 211t-164 72h-172v-565h172q108 0 164 72t56 210zM406 -183h-104v104h104v-104z" />
    <glyph glyph-name="ddotbelow" unicode="&#x1e0d;" 
d="M495 0h-74v77q-34 -49 -73.5 -70.5t-93.5 -21.5q-106 0 -167 75t-61 207q0 125 61.5 198.5t163.5 73.5q108 0 161 -81v271h83v-729zM412 260q0 91 -40 146t-107 55q-69 0 -110.5 -54t-41.5 -145t42 -145t111 -54q66 0 106 53.5t40 143.5zM330 -183h-104v104h104v-104z
" />
    <glyph glyph-name="Dlinebelow" unicode="&#x1e0e;" horiz-adv-x="722" 
d="M667 365q0 -170 -79.5 -267.5t-217.5 -97.5h-281v729h281q139 0 218 -97t79 -267zM574 364q0 139 -56 211t-164 72h-172v-565h172q108 0 164 72t56 210zM490 -166h-274v70h274v-70z" />
    <glyph glyph-name="dlinebelow" unicode="&#x1e0f;" 
d="M495 0h-74v77q-34 -49 -73.5 -70.5t-93.5 -21.5q-106 0 -167 75t-61 207q0 125 61.5 198.5t163.5 73.5q108 0 161 -81v271h83v-729zM412 260q0 91 -40 146t-107 55q-69 0 -110.5 -54t-41.5 -145t42 -145t111 -54q66 0 106 53.5t40 143.5zM414 -166h-274v70h274v-70z" />
    <glyph glyph-name="Hdotbelow" unicode="&#x1e24;" horiz-adv-x="722" 
d="M644 0h-93v332h-375v-332h-93v729h93v-315h375v315h93v-729zM413 -183h-104v104h104v-104z" />
    <glyph glyph-name="hdotbelow" unicode="&#x1e25;" 
d="M486 0h-83v363q0 50 -30.5 76.5t-77.5 26.5q-64 0 -103 -48.5t-39 -128.5v-289h-83v729h83v-277q37 48 74.5 67.5t93.5 19.5q76 0 120.5 -38.5t44.5 -104.5v-396zM330 -183h-104v104h104v-104z" />
    <glyph glyph-name="Hdieresis" unicode="&#x1e26;" horiz-adv-x="722" 
d="M644 0h-93v332h-375v-332h-93v729h93v-315h375v315h93v-729zM326 799h-91v102h91v-102zM488 799h-91v102h91v-102z" />
    <glyph glyph-name="hdieresis" unicode="&#x1e27;" 
d="M486 0h-83v363q0 50 -30.5 76.5t-77.5 26.5q-64 0 -103 -48.5t-39 -128.5v-289h-83v729h83v-277q37 48 74.5 67.5t93.5 19.5q76 0 120.5 -38.5t44.5 -104.5v-396zM243 799h-91v102h91v-102zM405 799h-91v102h91v-102z" />
    <glyph glyph-name="Hbrevebelow" unicode="&#x1e2a;" horiz-adv-x="722" 
d="M644 0h-93v332h-375v-332h-93v729h93v-315h375v315h93v-729zM541 -70q-12 -122 -182 -122q-81 0 -129.5 30t-49.5 92h71q4 -29 30 -39.5t80 -10.5q104 0 109 50h71z" />
    <glyph glyph-name="hbrevebelow" unicode="&#x1e2b;" 
d="M486 0h-83v363q0 50 -30.5 76.5t-77.5 26.5q-64 0 -103 -48.5t-39 -128.5v-289h-83v729h83v-277q37 48 74.5 67.5t93.5 19.5q76 0 120.5 -38.5t44.5 -104.5v-396zM458 -70q-12 -122 -182 -122q-81 0 -129.5 30t-49.5 92h71q4 -29 30 -39.5t80 -10.5q104 0 109 50h71z" />
    <glyph glyph-name="Ldotbelow" unicode="&#x1e36;" 
d="M533 0h-453v729h93v-647h360v-82zM359 -183h-104v104h104v-104z" />
    <glyph glyph-name="ldotbelow" unicode="&#x1e37;" horiz-adv-x="222" 
d="M151 0h-83v729h83v-729zM163 -183h-104v104h104v-104z" />
    <glyph glyph-name="Ldotbelowmacron" unicode="&#x1e38;" 
d="M533 0h-453v729h93v-647h360v-82zM359 -183h-104v104h104v-104zM262 815h-274v70h274v-70z" />
    <glyph glyph-name="ldotbelowmacron" unicode="&#x1e39;" horiz-adv-x="222" 
d="M151 0h-83v729h83v-729zM163 -183h-104v104h104v-104zM245 815h-274v70h274v-70z" />
    <glyph glyph-name="Mdotbelow" unicode="&#x1e42;" horiz-adv-x="833" 
d="M761 0h-88v611l-205 -611h-98l-207 611v-611h-88v729h129l216 -635l212 635h129v-729zM469 -183h-104v104h104v-104z" />
    <glyph glyph-name="mdotbelow" unicode="&#x1e43;" horiz-adv-x="833" 
d="M760 0h-83v361q0 50 -25 77.5t-71 27.5q-51 0 -87.5 -40t-36.5 -97v-329h-83v361q0 50 -25.5 77.5t-71.5 27.5q-51 0 -87 -40t-36 -97v-329h-83v524h76v-74q34 47 71.5 68t89.5 21q97 0 141 -80q37 44 73 62t88 18q73 0 111.5 -37.5t38.5 -108.5v-393zM469 -183h-104v104
h104v-104z" />
    <glyph glyph-name="Ndotaccent" unicode="&#x1e44;" horiz-adv-x="722" 
d="M646 0h-105l-377 591v-591h-88v729h101l381 -596v596h88v-729zM414 798h-104v104h104v-104z" />
    <glyph glyph-name="ndotaccent" unicode="&#x1e45;" 
d="M487 0h-83v363q0 47 -29 75t-79 28q-64 0 -103.5 -48.5t-39.5 -128.5v-289h-83v524h77v-88q35 55 75.5 79t98.5 24q76 0 121 -39t45 -104v-396zM330 603h-104v104h104v-104z" />
    <glyph glyph-name="Ndotbelow" unicode="&#x1e46;" horiz-adv-x="722" 
d="M646 0h-105l-377 591v-591h-88v729h101l381 -596v596h88v-729zM413 -183h-104v104h104v-104z" />
    <glyph glyph-name="ndotbelow" unicode="&#x1e47;" 
d="M487 0h-83v363q0 47 -29 75t-79 28q-64 0 -103.5 -48.5t-39.5 -128.5v-289h-83v524h77v-88q35 55 75.5 79t98.5 24q76 0 121 -39t45 -104v-396zM330 -183h-104v104h104v-104z" />
    <glyph glyph-name="Rdotaccent" unicode="&#x1e58;" horiz-adv-x="722" 
d="M679 0h-113q-22 52 -21 119l1 65q1 67 -28.5 98.5t-91.5 31.5h-240v-314h-93v729h336q107 0 164.5 -50.5t57.5 -144.5q0 -62 -27 -103t-88 -71q59 -25 78 -62.5t21 -127.5q1 -73 9.5 -101t34.5 -46v-23zM554 521q0 63 -33.5 94.5t-109.5 31.5h-225v-251h225
q74 0 108.5 30t34.5 95zM414 798h-104v104h104v-104z" />
    <glyph glyph-name="rdotaccent" unicode="&#x1e59;" horiz-adv-x="333" 
d="M321 451q-94 -1 -131 -44t-37 -135v-272h-83v524h76v-95q36 59 69.5 84.5t73.5 25.5q11 0 32 -3v-85zM205 603h-104v104h104v-104z" />
    <glyph glyph-name="Rdotbelow" unicode="&#x1e5a;" horiz-adv-x="722" 
d="M679 0h-113q-22 52 -21 119l1 65q1 67 -28.5 98.5t-91.5 31.5h-240v-314h-93v729h336q107 0 164.5 -50.5t57.5 -144.5q0 -62 -27 -103t-88 -71q59 -25 78 -62.5t21 -127.5q1 -73 9.5 -101t34.5 -46v-23zM554 521q0 63 -33.5 94.5t-109.5 31.5h-225v-251h225
q74 0 108.5 30t34.5 95zM413 -183h-104v104h104v-104z" />
    <glyph glyph-name="rdotbelow" unicode="&#x1e5b;" horiz-adv-x="333" 
d="M321 451q-94 -1 -131 -44t-37 -135v-272h-83v524h76v-95q36 59 69.5 84.5t73.5 25.5q11 0 32 -3v-85zM164 -183h-104v104h104v-104z" />
    <glyph glyph-name="Rdotbelowmacron" unicode="&#x1e5c;" horiz-adv-x="722" 
d="M679 0h-113q-22 52 -21 119l1 65q1 67 -28.5 98.5t-91.5 31.5h-240v-314h-93v729h336q107 0 164.5 -50.5t57.5 -144.5q0 -62 -27 -103t-88 -71q59 -25 78 -62.5t21 -127.5q1 -73 9.5 -101t34.5 -46v-23zM554 521q0 63 -33.5 94.5t-109.5 31.5h-225v-251h225
q74 0 108.5 30t34.5 95zM413 -183h-104v104h104v-104zM497 815h-274v70h274v-70z" />
    <glyph glyph-name="rdotbelowmacron" unicode="&#x1e5d;" horiz-adv-x="333" 
d="M321 451q-94 -1 -131 -44t-37 -135v-272h-83v524h76v-95q36 59 69.5 84.5t73.5 25.5q11 0 32 -3v-85zM164 -183h-104v104h104v-104zM288 635h-274v70h274v-70z" />
    <glyph glyph-name="Sdotbelow" unicode="&#x1e62;" horiz-adv-x="667" 
d="M621 200q0 -100 -74.5 -159t-210.5 -59q-133 0 -210.5 65t-77.5 190h88q0 -80 52.5 -126.5t153.5 -46.5q186 0 186 127q0 83 -134 118l-181 48q-143 37 -143 170q0 100 70 160t189 60q126 0 196.5 -59.5t70.5 -166.5h-88q0 71 -47.5 109.5t-134.5 38.5q-73 0 -118 -36.5
t-45 -92.5q0 -42 27 -66.5t93 -41.5l183 -49q74 -20 114.5 -68t40.5 -115zM386 -183h-104v104h104v-104z" />
    <glyph glyph-name="sdotbelow" unicode="&#x1e63;" horiz-adv-x="500" 
d="M459 147q0 -75 -58.5 -118.5t-157.5 -43.5q-103 0 -154.5 42.5t-54.5 132.5h88q8 -57 38 -77.5t90 -20.5q55 0 88.5 21t33.5 57q0 28 -18.5 43t-62.5 26l-78 19q-93 22 -129.5 55.5t-36.5 95.5q0 73 55 116.5t146 43.5t140 -42t50 -119h-88q-3 84 -105 84
q-51 0 -81 -21.5t-30 -57.5q0 -28 23 -45.5t74 -29.5l80 -19q79 -19 113.5 -51.5t34.5 -90.5zM302 -183h-104v104h104v-104z" />
    <glyph glyph-name="Tdotbelow" unicode="&#x1e6c;" horiz-adv-x="611" 
d="M593 647h-239v-647h-93v647h-240v82h572v-82zM360 -183h-104v104h104v-104z" />
    <glyph glyph-name="tdotbelow" unicode="&#x1e6d;" horiz-adv-x="278" 
d="M254 0q-39 -7 -68 -7q-49 0 -75 21.5t-26 61.5v380h-71v68h71v144h83v-144h86v-68h-86v-343q0 -28 9.5 -37.5t36.5 -9.5q25 0 40 4v-70zM191 -183h-104v104h104v-104z" />
    <glyph glyph-name="Tlinebelow" unicode="&#x1e6e;" horiz-adv-x="611" 
d="M593 647h-239v-647h-93v647h-240v82h572v-82zM444 -166h-274v70h274v-70z" />
    <glyph glyph-name="tlinebelow" unicode="&#x1e6f;" horiz-adv-x="278" 
d="M254 0q-39 -7 -68 -7q-49 0 -75 21.5t-26 61.5v380h-71v68h71v144h83v-144h86v-68h-86v-343q0 -28 9.5 -37.5t36.5 -9.5q25 0 40 4v-70zM275 -166h-274v70h274v-70z" />
    <glyph glyph-name="Wgrave" unicode="&#x1e80;" horiz-adv-x="944" 
d="M929 729l-185 -729h-102l-168 599l-163 -599h-102l-187 729h104l137 -592l162 592h100l166 -592l134 592h104zM508 783h-72l-179 133h136z" />
    <glyph glyph-name="wgrave" unicode="&#x1e81;" horiz-adv-x="722" 
d="M708 524l-154 -524h-95l-106 411l-101 -411h-94l-152 524h92l107 -408l100 408h102l103 -408l104 408h94zM391 581h-60l-149 148h113z" />
    <glyph glyph-name="Wacute" unicode="&#x1e82;" horiz-adv-x="944" 
d="M929 729l-185 -729h-102l-168 599l-163 -599h-102l-187 729h104l137 -592l162 592h100l166 -592l134 592h104zM687 916l-179 -133h-72l115 133h136z" />
    <glyph glyph-name="wacute" unicode="&#x1e83;" horiz-adv-x="722" 
d="M708 524l-154 -524h-95l-106 411l-101 -411h-94l-152 524h92l107 -408l100 408h102l103 -408l104 408h94zM540 729l-149 -148h-60l96 148h113z" />
    <glyph glyph-name="Wdieresis" unicode="&#x1e84;" horiz-adv-x="944" 
d="M929 729l-185 -729h-102l-168 599l-163 -599h-102l-187 729h104l137 -592l162 592h100l166 -592l134 592h104zM437 799h-91v102h91v-102zM599 799h-91v102h91v-102z" />
    <glyph glyph-name="wdieresis" unicode="&#x1e85;" horiz-adv-x="722" 
d="M708 524l-154 -524h-95l-106 411l-101 -411h-94l-152 524h92l107 -408l100 408h102l103 -408l104 408h94zM325 604h-91v102h91v-102zM487 604h-91v102h91v-102z" />
    <glyph glyph-name="Zdotbelow" unicode="&#x1e92;" horiz-adv-x="611" 
d="M583 0h-555v82l438 565h-410v82h525v-84l-436 -563h438v-82zM371 -183h-104v104h104v-104z" />
    <glyph glyph-name="zdotbelow" unicode="&#x1e93;" horiz-adv-x="500" 
d="M457 0h-426v75l313 376h-292v73h391v-74l-311 -377h325v-73zM302 -183h-104v104h104v-104z" />
    <glyph glyph-name="tdieresis" unicode="&#x1e97;" horiz-adv-x="278" 
d="M254 0q-39 -7 -68 -7q-49 0 -75 21.5t-26 61.5v380h-71v68h71v144h83v-144h86v-68h-86v-343q0 -28 9.5 -37.5t36.5 -9.5q25 0 40 4v-70zM91 738h-91v102h91v-102zM253 738h-91v102h91v-102z" />
    <glyph glyph-name="Adotbelow" unicode="&#x1ea0;" horiz-adv-x="667" 
d="M653 0h-104l-75 219h-281l-77 -219h-99l260 729h120zM448 297l-112 332l-120 -332h232zM386 -183h-104v104h104v-104z" />
    <glyph glyph-name="adotbelow" unicode="&#x1ea1;" 
d="M535 2q-35 -9 -57 -9q-31 0 -55 19.5t-31 49.5q-72 -77 -178 -77q-80 0 -126 40t-46 111q0 98 92 136q25 10 53 15.5t115 16.5q49 6 68 19t19 39v22q0 38 -30.5 58t-86.5 20q-58 0 -88 -22.5t-35 -70.5h-84q7 170 210 170q97 0 147 -36.5t50 -106.5v-292q0 -41 45 -41
q9 0 18 2v-63zM389 181v78q-33 -15 -134 -29q-68 -10 -97 -30.5t-29 -61.5q0 -80 103 -80q63 0 110 34.5t47 88.5zM327 -183h-104v104h104v-104z" />
    <glyph glyph-name="Ahookabove" unicode="&#x1ea2;" horiz-adv-x="667" 
d="M653 0h-104l-75 219h-281l-77 -219h-99l260 729h120zM448 297l-112 332l-120 -332h232zM450 911q0 -24 -10.5 -40.5t-39.5 -37.5q-23 -18 -29 -24.5t-6 -14.5v-30h-62v33q0 23 11 38t42 35v-1q32 25 32 42q0 14 -14 22.5t-37 8.5q-34 0 -45 -17v1q-7 -11 -7 -44h-61
q0 115 116 115q51 0 80.5 -23.5t29.5 -62.5z" />
    <glyph glyph-name="ahookabove" unicode="&#x1ea3;" 
d="M535 2q-35 -9 -57 -9q-31 0 -55 19.5t-31 49.5q-72 -77 -178 -77q-80 0 -126 40t-46 111q0 98 92 136q25 10 53 15.5t115 16.5q49 6 68 19t19 39v22q0 38 -30.5 58t-86.5 20q-58 0 -88 -22.5t-35 -70.5h-84q7 170 210 170q97 0 147 -36.5t50 -106.5v-292q0 -41 45 -41
q9 0 18 2v-63zM389 181v78q-33 -15 -134 -29q-68 -10 -97 -30.5t-29 -61.5q0 -80 103 -80q63 0 110 34.5t47 88.5zM388 706q0 -24 -10.5 -40.5t-39.5 -37.5q-23 -18 -29 -24.5t-6 -14.5v-30h-62v33q0 23 11 38t42 35v-1q32 25 32 42q0 14 -14 22.5t-37 8.5q-34 0 -45 -17v1
q-7 -11 -7 -44h-61q0 115 116 115q51 0 80.5 -23.5t29.5 -62.5z" />
    <glyph glyph-name="Acircumflexacute" unicode="&#x1ea4;" horiz-adv-x="667" 
d="M653 0h-104l-75 219h-281l-77 -219h-99l260 729h120zM448 297l-112 332l-120 -332h232zM552 1071l-179 -133h-72l115 133h136zM510 783h-75l-97 86l-95 -86h-77l115 135h114z" />
    <glyph glyph-name="acircumflexacute" unicode="&#x1ea5;" 
d="M535 2q-35 -9 -57 -9q-31 0 -55 19.5t-31 49.5q-72 -77 -178 -77q-80 0 -126 40t-46 111q0 98 92 136q25 10 53 15.5t115 16.5q49 6 68 19t19 39v22q0 38 -30.5 58t-86.5 20q-58 0 -88 -22.5t-35 -70.5h-84q7 170 210 170q97 0 147 -36.5t50 -106.5v-292q0 -41 45 -41
q9 0 18 2v-63zM389 181v78q-33 -15 -134 -29q-68 -10 -97 -30.5t-29 -61.5q0 -80 103 -80q63 0 110 34.5t47 88.5zM490 866l-179 -133h-72l115 133h136zM448 578h-75l-97 86l-95 -86h-77l115 135h114z" />
    <glyph glyph-name="Acircumflexgrave" unicode="&#x1ea6;" horiz-adv-x="667" 
d="M653 0h-104l-75 219h-281l-77 -219h-99l260 729h120zM448 297l-112 332l-120 -332h232zM373 938h-72l-179 133h136zM510 783h-75l-97 86l-95 -86h-77l115 135h114z" />
    <glyph glyph-name="acircumflexgrave" unicode="&#x1ea7;" 
d="M535 2q-35 -9 -57 -9q-31 0 -55 19.5t-31 49.5q-72 -77 -178 -77q-80 0 -126 40t-46 111q0 98 92 136q25 10 53 15.5t115 16.5q49 6 68 19t19 39v22q0 38 -30.5 58t-86.5 20q-58 0 -88 -22.5t-35 -70.5h-84q7 170 210 170q97 0 147 -36.5t50 -106.5v-292q0 -41 45 -41
q9 0 18 2v-63zM389 181v78q-33 -15 -134 -29q-68 -10 -97 -30.5t-29 -61.5q0 -80 103 -80q63 0 110 34.5t47 88.5zM311 733h-72l-179 133h136zM448 578h-75l-97 86l-95 -86h-77l115 135h114z" />
    <glyph glyph-name="Acircumflexhookabove" unicode="&#x1ea8;" horiz-adv-x="667" 
d="M653 0h-104l-75 219h-281l-77 -219h-99l260 729h120zM448 297l-112 332l-120 -332h232zM510 1071q0 -22 -10.5 -36.5t-39.5 -34.5q-23 -15 -29 -21.5t-6 -13.5v-27h-62v30q0 21 11 34t42 32v-1q32 22 32 38q0 12 -14 20t-37 8q-34 0 -45 -16v1q-7 -10 -7 -39h-61
q0 103 116 103q51 0 80.5 -21t29.5 -56zM510 783h-75l-97 86l-95 -86h-77l115 135h114z" />
    <glyph glyph-name="acircumflexhookabove" unicode="&#x1ea9;" 
d="M535 2q-35 -9 -57 -9q-31 0 -55 19.5t-31 49.5q-72 -77 -178 -77q-80 0 -126 40t-46 111q0 98 92 136q25 10 53 15.5t115 16.5q49 6 68 19t19 39v22q0 38 -30.5 58t-86.5 20q-58 0 -88 -22.5t-35 -70.5h-84q7 170 210 170q97 0 147 -36.5t50 -106.5v-292q0 -41 45 -41
q9 0 18 2v-63zM389 181v78q-33 -15 -134 -29q-68 -10 -97 -30.5t-29 -61.5q0 -80 103 -80q63 0 110 34.5t47 88.5zM448 866q0 -22 -10.5 -36.5t-39.5 -34.5q-23 -15 -29 -21t-6 -14v-27h-62v30q0 21 11 34t42 32v-1q32 22 32 38q0 12 -14 20t-37 8q-34 0 -45 -16v1
q-7 -10 -7 -39h-61q0 103 116 103q51 0 80.5 -21t29.5 -56zM448 578h-75l-97 86l-95 -86h-77l115 135h114z" />
    <glyph glyph-name="Acircumflextilde" unicode="&#x1eaa;" horiz-adv-x="667" 
d="M653 0h-104l-75 219h-281l-77 -219h-99l260 729h120zM448 297l-112 332l-120 -332h232zM490 1052q-15 -104 -89 -104q-21 0 -85 25q-35 13 -49 13q-23 0 -33 -37h-58q8 49 30.5 76t55.5 27q23 0 70 -19q41 -18 63 -18q25 0 37 37h58zM510 783h-75l-97 86l-95 -86h-77
l115 135h114z" />
    <glyph glyph-name="acircumflextilde" unicode="&#x1eab;" 
d="M535 2q-35 -9 -57 -9q-31 0 -55 19.5t-31 49.5q-72 -77 -178 -77q-80 0 -126 40t-46 111q0 98 92 136q25 10 53 15.5t115 16.5q49 6 68 19t19 39v22q0 38 -30.5 58t-86.5 20q-58 0 -88 -22.5t-35 -70.5h-84q7 170 210 170q97 0 147 -36.5t50 -106.5v-292q0 -41 45 -41
q9 0 18 2v-63zM389 181v78q-33 -15 -134 -29q-68 -10 -97 -30.5t-29 -61.5q0 -80 103 -80q63 0 110 34.5t47 88.5zM428 847q-15 -104 -89 -104q-21 0 -85 25q-35 13 -49 13q-23 0 -33 -37h-58q8 49 30.5 76t55.5 27q23 0 70 -19q41 -18 63 -18q25 0 37 37h58zM448 578h-75
l-97 86l-95 -86h-77l115 135h114z" />
    <glyph glyph-name="Acircumflexdotbelow" unicode="&#x1eac;" horiz-adv-x="667" 
d="M653 0h-104l-75 219h-281l-77 -219h-99l260 729h120zM448 297l-112 332l-120 -332h232zM509 783h-75l-97 86l-95 -86h-77l115 135h114zM386 -183h-104v104h104v-104z" />
    <glyph glyph-name="acircumflexdotbelow" unicode="&#x1ead;" 
d="M535 2q-35 -9 -57 -9q-31 0 -55 19.5t-31 49.5q-72 -77 -178 -77q-80 0 -126 40t-46 111q0 98 92 136q25 10 53 15.5t115 16.5q49 6 68 19t19 39v22q0 38 -30.5 58t-86.5 20q-58 0 -88 -22.5t-35 -70.5h-84q7 170 210 170q97 0 147 -36.5t50 -106.5v-292q0 -41 45 -41
q9 0 18 2v-63zM389 181v78q-33 -15 -134 -29q-68 -10 -97 -30.5t-29 -61.5q0 -80 103 -80q63 0 110 34.5t47 88.5zM418 580h-63l-81 96l-79 -96h-64l96 150h95zM327 -183h-104v104h104v-104z" />
    <glyph glyph-name="Abreveacute" unicode="&#x1eae;" horiz-adv-x="667" 
d="M653 0h-104l-75 219h-281l-77 -219h-99l260 729h120zM448 297l-112 332l-120 -332h232zM552 1078l-179 -133h-72l115 133h136zM518 911q-12 -122 -182 -122q-81 0 -129.5 30t-49.5 92h71q4 -29 30 -39.5t80 -10.5q104 0 109 50h71z" />
    <glyph glyph-name="abreveacute" unicode="&#x1eaf;" 
d="M535 2q-35 -9 -57 -9q-31 0 -55 19.5t-31 49.5q-72 -77 -178 -77q-80 0 -126 40t-46 111q0 98 92 136q25 10 53 15.5t115 16.5q49 6 68 19t19 39v22q0 38 -30.5 58t-86.5 20q-58 0 -88 -22.5t-35 -70.5h-84q7 170 210 170q97 0 147 -36.5t50 -106.5v-292q0 -41 45 -41
q9 0 18 2v-63zM389 181v78q-33 -15 -134 -29q-68 -10 -97 -30.5t-29 -61.5q0 -80 103 -80q63 0 110 34.5t47 88.5zM490 873l-179 -133h-72l115 133h136zM456 706q-12 -122 -182 -122q-81 0 -129.5 30t-49.5 92h71q4 -29 30 -39.5t80 -10.5q104 0 109 50h71z" />
    <glyph glyph-name="Abrevegrave" unicode="&#x1eb0;" horiz-adv-x="667" 
d="M653 0h-104l-75 219h-281l-77 -219h-99l260 729h120zM448 297l-112 332l-120 -332h232zM373 945h-72l-179 133h136zM518 911q-12 -122 -182 -122q-81 0 -129.5 30t-49.5 92h71q4 -29 30 -39.5t80 -10.5q104 0 109 50h71z" />
    <glyph glyph-name="abrevegrave" unicode="&#x1eb1;" 
d="M535 2q-35 -9 -57 -9q-31 0 -55 19.5t-31 49.5q-72 -77 -178 -77q-80 0 -126 40t-46 111q0 98 92 136q25 10 53 15.5t115 16.5q49 6 68 19t19 39v22q0 38 -30.5 58t-86.5 20q-58 0 -88 -22.5t-35 -70.5h-84q7 170 210 170q97 0 147 -36.5t50 -106.5v-292q0 -41 45 -41
q9 0 18 2v-63zM389 181v78q-33 -15 -134 -29q-68 -10 -97 -30.5t-29 -61.5q0 -80 103 -80q63 0 110 34.5t47 88.5zM311 740h-72l-179 133h136zM456 706q-12 -122 -182 -122q-81 0 -129.5 30t-49.5 92h71q4 -29 30 -39.5t80 -10.5q104 0 109 50h71z" />
    <glyph glyph-name="Abrevehookabove" unicode="&#x1eb2;" horiz-adv-x="667" 
d="M653 0h-104l-75 219h-281l-77 -219h-99l260 729h120zM448 297l-112 332l-120 -332h232zM451 1034q0 -22 -10.5 -36.5t-39.5 -34.5q-23 -15 -29 -21t-6 -14v-27h-62v30q0 21 11 34t42 32v-1q32 22 32 38q0 12 -14 20t-37 8q-34 0 -45 -16v1q-7 -10 -7 -39h-61
q0 103 116 103q51 0 80.5 -21t29.5 -56zM518 911q-12 -122 -182 -122q-81 0 -129.5 30t-49.5 92h71q4 -29 30 -39.5t80 -10.5q104 0 109 50h71z" />
    <glyph glyph-name="abrevehookabove" unicode="&#x1eb3;" 
d="M535 2q-35 -9 -57 -9q-31 0 -55 19.5t-31 49.5q-72 -77 -178 -77q-80 0 -126 40t-46 111q0 98 92 136q25 10 53 15.5t115 16.5q49 6 68 19t19 39v22q0 38 -30.5 58t-86.5 20q-58 0 -88 -22.5t-35 -70.5h-84q7 170 210 170q97 0 147 -36.5t50 -106.5v-292q0 -41 45 -41
q9 0 18 2v-63zM389 181v78q-33 -15 -134 -29q-68 -10 -97 -30.5t-29 -61.5q0 -80 103 -80q63 0 110 34.5t47 88.5zM389 829q0 -22 -10.5 -36.5t-39.5 -34.5q-22 -15 -28.5 -21.5t-6.5 -13.5v-27h-62v30q0 21 11 34t42 32v-1q32 22 32 38q0 12 -14 20t-37 8q-34 0 -45 -16v1
q-7 -10 -7 -39h-61q0 103 116 103q51 0 80.5 -21t29.5 -56zM456 706q-12 -122 -182 -122q-81 0 -129.5 30t-49.5 92h71q4 -29 30 -39.5t80 -10.5q104 0 109 50h71z" />
    <glyph glyph-name="Abrevetilde" unicode="&#x1eb4;" horiz-adv-x="667" 
d="M653 0h-104l-75 219h-281l-77 -219h-99l260 729h120zM448 297l-112 332l-120 -332h232zM490 1060q-15 -104 -89 -104q-21 0 -85 25q-35 13 -49 13q-23 0 -33 -37h-58q8 49 30.5 76t55.5 27q23 0 70 -19q41 -18 63 -18q25 0 37 37h58zM518 911q-12 -122 -182 -122
q-81 0 -129.5 30t-49.5 92h71q4 -29 30 -39.5t80 -10.5q104 0 109 50h71z" />
    <glyph glyph-name="abrevetilde" unicode="&#x1eb5;" 
d="M535 2q-35 -9 -57 -9q-31 0 -55 19.5t-31 49.5q-72 -77 -178 -77q-80 0 -126 40t-46 111q0 98 92 136q25 10 53 15.5t115 16.5q49 6 68 19t19 39v22q0 38 -30.5 58t-86.5 20q-58 0 -88 -22.5t-35 -70.5h-84q7 170 210 170q97 0 147 -36.5t50 -106.5v-292q0 -41 45 -41
q9 0 18 2v-63zM389 181v78q-33 -15 -134 -29q-68 -10 -97 -30.5t-29 -61.5q0 -80 103 -80q63 0 110 34.5t47 88.5zM428 855q-15 -104 -89 -104q-21 0 -85 25q-35 13 -49 13q-23 0 -33 -37h-58q8 49 30.5 76t55.5 27q23 0 70 -19q41 -18 63 -18q25 0 37 37h58zM456 706
q-12 -122 -182 -122q-81 0 -129.5 30t-49.5 92h71q4 -29 30 -39.5t80 -10.5q104 0 109 50h71z" />
    <glyph glyph-name="Abrevedotbelow" unicode="&#x1eb6;" horiz-adv-x="667" 
d="M653 0h-104l-75 219h-281l-77 -219h-99l260 729h120zM448 297l-112 332l-120 -332h232zM517 911q-12 -122 -182 -122q-81 0 -129.5 30t-49.5 92h71q4 -29 30 -39.5t80 -10.5q104 0 109 50h71zM386 -183h-104v104h104v-104z" />
    <glyph glyph-name="abrevedotbelow" unicode="&#x1eb7;" 
d="M535 2q-35 -9 -57 -9q-31 0 -55 19.5t-31 49.5q-72 -77 -178 -77q-80 0 -126 40t-46 111q0 98 92 136q25 10 53 15.5t115 16.5q49 6 68 19t19 39v22q0 38 -30.5 58t-86.5 20q-58 0 -88 -22.5t-35 -70.5h-84q7 170 210 170q97 0 147 -36.5t50 -106.5v-292q0 -41 45 -41
q9 0 18 2v-63zM389 181v78q-33 -15 -134 -29q-68 -10 -97 -30.5t-29 -61.5q0 -80 103 -80q63 0 110 34.5t47 88.5zM424 723q0 -57 -45 -96t-107 -39t-107 39t-45 96h54q12 -30 39 -48t59 -18t59 18t39 48h54zM327 -183h-104v104h104v-104z" />
    <glyph glyph-name="Edotbelow" unicode="&#x1eb8;" horiz-adv-x="667" 
d="M613 0h-523v729h505v-82h-412v-233h397v-82h-397v-250h430v-82zM386 -183h-104v104h104v-104z" />
    <glyph glyph-name="edotbelow" unicode="&#x1eb9;" 
d="M513 238h-386q1 -87 43.5 -131.5t110.5 -44.5q105 0 137 97h84q-16 -80 -75.5 -127t-148.5 -47q-111 0 -174.5 72.5t-63.5 201.5t65 204.5t175 75.5q74 0 130.5 -37t81.5 -101q21 -55 21 -163zM424 312q0 62 -42 106t-103 44q-63 0 -104 -43t-46 -113h294zM332 -183h-104
v104h104v-104z" />
    <glyph glyph-name="Ehookabove" unicode="&#x1eba;" horiz-adv-x="667" 
d="M613 0h-523v729h505v-82h-412v-233h397v-82h-397v-250h430v-82zM456 911q0 -24 -10.5 -40.5t-39.5 -37.5q-23 -18 -29 -24.5t-6 -14.5v-30h-62v33q0 23 11 38t42 35v-1q32 25 32 42q0 14 -14 22.5t-37 8.5q-34 0 -45 -17v1q-7 -11 -7 -44h-61q0 115 116 115
q51 0 80.5 -23.5t29.5 -62.5z" />
    <glyph glyph-name="ehookabove" unicode="&#x1ebb;" 
d="M513 238h-386q1 -87 43.5 -131.5t110.5 -44.5q105 0 137 97h84q-16 -80 -75.5 -127t-148.5 -47q-111 0 -174.5 72.5t-63.5 201.5t65 204.5t175 75.5q74 0 130.5 -37t81.5 -101q21 -55 21 -163zM424 312q0 62 -42 106t-103 44q-63 0 -104 -43t-46 -113h294zM393 706
q0 -24 -10.5 -40.5t-39.5 -37.5q-23 -18 -29 -24.5t-6 -14.5v-30h-62v33q0 23 11 38t42 35v-1q32 25 32 42q0 14 -14 22.5t-37 8.5q-34 0 -45 -17v1q-7 -11 -7 -44h-61q0 115 116 115q51 0 80.5 -23.5t29.5 -62.5z" />
    <glyph glyph-name="Etilde" unicode="&#x1ebc;" horiz-adv-x="667" 
d="M613 0h-523v729h505v-82h-412v-233h397v-82h-397v-250h430v-82zM496 902q-15 -104 -89 -104q-21 0 -85 25q-35 13 -49 13q-23 0 -33 -37h-58q8 49 30.5 76t55.5 27q23 0 70 -19q41 -18 63 -18q25 0 37 37h58z" />
    <glyph glyph-name="etilde" unicode="&#x1ebd;" 
d="M513 238h-386q1 -87 43.5 -131.5t110.5 -44.5q105 0 137 97h84q-16 -80 -75.5 -127t-148.5 -47q-111 0 -174.5 72.5t-63.5 201.5t65 204.5t175 75.5q74 0 130.5 -37t81.5 -101q21 -55 21 -163zM424 312q0 62 -42 106t-103 44q-63 0 -104 -43t-46 -113h294zM432 707
q-15 -104 -89 -104q-21 0 -85 25q-35 13 -49 13q-23 0 -33 -37h-58q8 49 30.5 76t55.5 27q23 0 70 -19q41 -18 63 -18q25 0 37 37h58z" />
    <glyph glyph-name="Ecircumflexacute" unicode="&#x1ebe;" horiz-adv-x="667" 
d="M613 0h-523v729h505v-82h-412v-233h397v-82h-397v-250h430v-82zM558 1071l-179 -133h-72l115 133h136zM516 783h-75l-97 86l-95 -86h-77l115 135h114z" />
    <glyph glyph-name="ecircumflexacute" unicode="&#x1ebf;" 
d="M513 238h-386q1 -87 43.5 -131.5t110.5 -44.5q105 0 137 97h84q-16 -80 -75.5 -127t-148.5 -47q-111 0 -174.5 72.5t-63.5 201.5t65 204.5t175 75.5q74 0 130.5 -37t81.5 -101q21 -55 21 -163zM424 312q0 62 -42 106t-103 44q-63 0 -104 -43t-46 -113h294zM495 866
l-179 -133h-72l115 133h136zM453 578h-75l-97 86l-95 -86h-77l115 135h114z" />
    <glyph glyph-name="Ecircumflexgrave" unicode="&#x1ec0;" horiz-adv-x="667" 
d="M613 0h-523v729h505v-82h-412v-233h397v-82h-397v-250h430v-82zM379 938h-72l-179 133h136zM516 783h-75l-97 86l-95 -86h-77l115 135h114z" />
    <glyph glyph-name="ecircumflexgrave" unicode="&#x1ec1;" 
d="M513 238h-386q1 -87 43.5 -131.5t110.5 -44.5q105 0 137 97h84q-16 -80 -75.5 -127t-148.5 -47q-111 0 -174.5 72.5t-63.5 201.5t65 204.5t175 75.5q74 0 130.5 -37t81.5 -101q21 -55 21 -163zM424 312q0 62 -42 106t-103 44q-63 0 -104 -43t-46 -113h294zM316 733h-72
l-179 133h136zM453 578h-75l-97 86l-95 -86h-77l115 135h114z" />
    <glyph glyph-name="Ecircumflexhookabove" unicode="&#x1ec2;" horiz-adv-x="667" 
d="M613 0h-523v729h505v-82h-412v-233h397v-82h-397v-250h430v-82zM516 1071q0 -22 -10.5 -36.5t-39.5 -34.5q-23 -15 -29 -21.5t-6 -13.5v-27h-62v30q0 21 11 34t42 32v-1q32 22 32 38q0 12 -14 20t-37 8q-34 0 -45 -16v1q-7 -10 -7 -39h-61q0 103 116 103q51 0 80.5 -21
t29.5 -56zM516 783h-75l-97 86l-95 -86h-77l115 135h114z" />
    <glyph glyph-name="ecircumflexhookabove" unicode="&#x1ec3;" 
d="M513 238h-386q1 -87 43.5 -131.5t110.5 -44.5q105 0 137 97h84q-16 -80 -75.5 -127t-148.5 -47q-111 0 -174.5 72.5t-63.5 201.5t65 204.5t175 75.5q74 0 130.5 -37t81.5 -101q21 -55 21 -163zM424 312q0 62 -42 106t-103 44q-63 0 -104 -43t-46 -113h294zM453 866
q0 -22 -10.5 -36.5t-39.5 -34.5q-23 -15 -29 -21t-6 -14v-27h-62v30q0 21 11 34t42 32v-1q32 22 32 38q0 12 -14 20t-37 8q-34 0 -45 -16v1q-7 -10 -7 -39h-61q0 103 116 103q51 0 80.5 -21t29.5 -56zM453 578h-75l-97 86l-95 -86h-77l115 135h114z" />
    <glyph glyph-name="Ecircumflextilde" unicode="&#x1ec4;" horiz-adv-x="667" 
d="M613 0h-523v729h505v-82h-412v-233h397v-82h-397v-250h430v-82zM496 1052q-15 -104 -89 -104q-21 0 -85 25q-35 13 -49 13q-23 0 -33 -37h-58q8 49 30.5 76t55.5 27q23 0 70 -19q41 -18 63 -18q25 0 37 37h58zM516 783h-75l-97 86l-95 -86h-77l115 135h114z" />
    <glyph glyph-name="ecircumflextilde" unicode="&#x1ec5;" 
d="M513 238h-386q1 -87 43.5 -131.5t110.5 -44.5q105 0 137 97h84q-16 -80 -75.5 -127t-148.5 -47q-111 0 -174.5 72.5t-63.5 201.5t65 204.5t175 75.5q74 0 130.5 -37t81.5 -101q21 -55 21 -163zM424 312q0 62 -42 106t-103 44q-63 0 -104 -43t-46 -113h294zM433 847
q-15 -104 -89 -104q-21 0 -85 25q-35 13 -49 13q-23 0 -33 -37h-58q8 49 30.5 76t55.5 27q23 0 70 -19q41 -18 63 -18q25 0 37 37h58zM453 578h-75l-97 86l-95 -86h-77l115 135h114z" />
    <glyph glyph-name="Ecircumflexdotbelow" unicode="&#x1ec6;" horiz-adv-x="667" 
d="M613 0h-523v729h505v-82h-412v-233h397v-82h-397v-250h430v-82zM515 783h-75l-97 86l-95 -86h-77l115 135h114zM386 -183h-104v104h104v-104z" />
    <glyph glyph-name="ecircumflexdotbelow" unicode="&#x1ec7;" 
d="M513 238h-386q1 -87 43.5 -131.5t110.5 -44.5q105 0 137 97h84q-16 -80 -75.5 -127t-148.5 -47q-111 0 -174.5 72.5t-63.5 201.5t65 204.5t175 75.5q74 0 130.5 -37t81.5 -101q21 -55 21 -163zM424 312q0 62 -42 106t-103 44q-63 0 -104 -43t-46 -113h294zM423 580h-63
l-81 96l-79 -96h-64l96 150h95zM332 -183h-104v104h104v-104z" />
    <glyph glyph-name="Ihookabove" unicode="&#x1ec8;" horiz-adv-x="278" 
d="M193 0h-93v729h93v-729zM260 911q0 -24 -10.5 -40.5t-39.5 -37.5q-23 -18 -29 -24.5t-6 -14.5v-30h-62v33q0 23 11 38t42 35v-1q32 25 32 42q0 14 -14 22.5t-37 8.5q-34 0 -45 -17v1q-7 -11 -7 -44h-61q0 115 116 115q51 0 80.5 -23.5t29.5 -62.5z" />
    <glyph glyph-name="ihookabove" unicode="&#x1ec9;" horiz-adv-x="278" 
d="M181 0h-83v524h83v-524zM253 706q0 -24 -10.5 -40.5t-39.5 -37.5q-23 -18 -29 -24.5t-6 -14.5v-30h-62v33q0 23 11 38t42 35v-1q32 25 32 42q0 14 -14 22.5t-37 8.5q-34 0 -45 -17v1q-7 -11 -7 -44h-61q0 115 116 115q51 0 80.5 -23.5t29.5 -62.5z" />
    <glyph glyph-name="Idotbelow" unicode="&#x1eca;" horiz-adv-x="278" 
d="M193 0h-93v729h93v-729zM199 -183h-104v104h104v-104z" />
    <glyph glyph-name="idotbelow" unicode="&#x1ecb;" horiz-adv-x="222" 
d="M153 0h-83v524h83v-524zM164 603h-104v104h104v-104zM163 -183h-104v104h104v-104z" />
    <glyph glyph-name="Odotbelow" unicode="&#x1ecc;" horiz-adv-x="778" 
d="M742 353q0 -163 -96.5 -267t-255.5 -104q-158 0 -255 103.5t-97 273.5q0 172 97.5 280t253.5 108q160 0 256.5 -108.5t96.5 -285.5zM649 355q0 139 -71 224.5t-189 85.5q-115 0 -186.5 -85.5t-71.5 -220.5q0 -134 71 -214.5t188 -80.5q116 0 187.5 80t71.5 211zM441 -183
h-104v104h104v-104z" />
    <glyph glyph-name="odotbelow" unicode="&#x1ecd;" 
d="M510 258q0 -129 -63 -201t-174 -72q-112 0 -174.5 72.5t-62.5 204.5q0 131 62.5 204t173.5 73q114 0 176 -73t62 -208zM423 259q0 97 -39.5 150t-110.5 53q-70 0 -110 -53t-40 -147q0 -95 40 -147.5t110 -52.5q69 0 109.5 52.5t40.5 144.5zM330 -183h-104v104h104v-104z
" />
    <glyph glyph-name="Ohookabove" unicode="&#x1ece;" horiz-adv-x="778" 
d="M742 353q0 -163 -96.5 -267t-255.5 -104q-158 0 -255 103.5t-97 273.5q0 172 97.5 280t253.5 108q160 0 256.5 -108.5t96.5 -285.5zM649 355q0 139 -71 224.5t-189 85.5q-115 0 -186.5 -85.5t-71.5 -220.5q0 -134 71 -214.5t188 -80.5q116 0 187.5 80t71.5 211zM502 911
q0 -24 -10.5 -40.5t-39.5 -37.5q-23 -18 -29 -24.5t-6 -14.5v-30h-62v33q0 23 11 38t42 35v-1q32 25 32 42q0 14 -14 22.5t-37 8.5q-34 0 -45 -17v1q-7 -11 -7 -44h-61q0 115 116 115q51 0 80.5 -23.5t29.5 -62.5z" />
    <glyph glyph-name="ohookabove" unicode="&#x1ecf;" 
d="M510 258q0 -129 -63 -201t-174 -72q-112 0 -174.5 72.5t-62.5 204.5q0 131 62.5 204t173.5 73q114 0 176 -73t62 -208zM423 259q0 97 -39.5 150t-110.5 53q-70 0 -110 -53t-40 -147q0 -95 40 -147.5t110 -52.5q69 0 109.5 52.5t40.5 144.5zM391 706q0 -24 -10.5 -40.5
t-39.5 -37.5q-23 -18 -29 -24.5t-6 -14.5v-30h-62v33q0 23 11 38t42 35v-1q32 25 32 42q0 14 -14 22.5t-37 8.5q-34 0 -45 -17v1q-7 -11 -7 -44h-61q0 115 116 115q51 0 80.5 -23.5t29.5 -62.5z" />
    <glyph glyph-name="Ocircumflexacute" unicode="&#x1ed0;" horiz-adv-x="778" 
d="M742 353q0 -163 -96.5 -267t-255.5 -104q-158 0 -255 103.5t-97 273.5q0 172 97.5 280t253.5 108q160 0 256.5 -108.5t96.5 -285.5zM649 355q0 139 -71 224.5t-189 85.5q-115 0 -186.5 -85.5t-71.5 -220.5q0 -134 71 -214.5t188 -80.5q116 0 187.5 80t71.5 211zM604 1071
l-179 -133h-72l115 133h136zM562 783h-75l-97 86l-95 -86h-77l115 135h114z" />
    <glyph glyph-name="ocircumflexacute" unicode="&#x1ed1;" 
d="M510 258q0 -129 -63 -201t-174 -72q-112 0 -174.5 72.5t-62.5 204.5q0 131 62.5 204t173.5 73q114 0 176 -73t62 -208zM423 259q0 97 -39.5 150t-110.5 53q-70 0 -110 -53t-40 -147q0 -95 40 -147.5t110 -52.5q69 0 109.5 52.5t40.5 144.5zM493 866l-179 -133h-72
l115 133h136zM451 578h-75l-97 86l-95 -86h-77l115 135h114z" />
    <glyph glyph-name="Ocircumflexgrave" unicode="&#x1ed2;" horiz-adv-x="778" 
d="M742 353q0 -163 -96.5 -267t-255.5 -104q-158 0 -255 103.5t-97 273.5q0 172 97.5 280t253.5 108q160 0 256.5 -108.5t96.5 -285.5zM649 355q0 139 -71 224.5t-189 85.5q-115 0 -186.5 -85.5t-71.5 -220.5q0 -134 71 -214.5t188 -80.5q116 0 187.5 80t71.5 211zM425 938
h-72l-179 133h136zM562 783h-75l-97 86l-95 -86h-77l115 135h114z" />
    <glyph glyph-name="ocircumflexgrave" unicode="&#x1ed3;" 
d="M510 258q0 -129 -63 -201t-174 -72q-112 0 -174.5 72.5t-62.5 204.5q0 131 62.5 204t173.5 73q114 0 176 -73t62 -208zM423 259q0 97 -39.5 150t-110.5 53q-70 0 -110 -53t-40 -147q0 -95 40 -147.5t110 -52.5q69 0 109.5 52.5t40.5 144.5zM314 733h-72l-179 133h136z
M451 578h-75l-97 86l-95 -86h-77l115 135h114z" />
    <glyph glyph-name="Ocircumflexhookabove" unicode="&#x1ed4;" horiz-adv-x="778" 
d="M742 353q0 -163 -96.5 -267t-255.5 -104q-158 0 -255 103.5t-97 273.5q0 172 97.5 280t253.5 108q160 0 256.5 -108.5t96.5 -285.5zM649 355q0 139 -71 224.5t-189 85.5q-115 0 -186.5 -85.5t-71.5 -220.5q0 -134 71 -214.5t188 -80.5q116 0 187.5 80t71.5 211zM562 1071
q0 -22 -10.5 -36.5t-39.5 -34.5q-23 -15 -29 -21.5t-6 -13.5v-27h-62v30q0 21 11 34t42 32v-1q32 22 32 38q0 12 -14 20t-37 8q-34 0 -45 -16v1q-7 -10 -7 -39h-61q0 103 116 103q51 0 80.5 -21t29.5 -56zM562 783h-75l-97 86l-95 -86h-77l115 135h114z" />
    <glyph glyph-name="ocircumflexhookabove" unicode="&#x1ed5;" 
d="M510 258q0 -129 -63 -201t-174 -72q-112 0 -174.5 72.5t-62.5 204.5q0 131 62.5 204t173.5 73q114 0 176 -73t62 -208zM423 259q0 97 -39.5 150t-110.5 53q-70 0 -110 -53t-40 -147q0 -95 40 -147.5t110 -52.5q69 0 109.5 52.5t40.5 144.5zM451 866q0 -22 -10.5 -36.5
t-39.5 -34.5q-23 -15 -29 -21t-6 -14v-27h-62v30q0 21 11 34t42 32v-1q32 22 32 38q0 12 -14 20t-37 8q-34 0 -45 -16v1q-7 -10 -7 -39h-61q0 103 116 103q51 0 80.5 -21t29.5 -56zM451 578h-75l-97 86l-95 -86h-77l115 135h114z" />
    <glyph glyph-name="Ocircumflextilde" unicode="&#x1ed6;" horiz-adv-x="778" 
d="M742 353q0 -163 -96.5 -267t-255.5 -104q-158 0 -255 103.5t-97 273.5q0 172 97.5 280t253.5 108q160 0 256.5 -108.5t96.5 -285.5zM649 355q0 139 -71 224.5t-189 85.5q-115 0 -186.5 -85.5t-71.5 -220.5q0 -134 71 -214.5t188 -80.5q116 0 187.5 80t71.5 211zM542 1052
q-15 -104 -89 -104q-21 0 -85 25q-35 13 -49 13q-23 0 -33 -37h-58q8 49 30.5 76t55.5 27q23 0 70 -19q41 -18 63 -18q25 0 37 37h58zM562 783h-75l-97 86l-95 -86h-77l115 135h114z" />
    <glyph glyph-name="ocircumflextilde" unicode="&#x1ed7;" 
d="M510 258q0 -129 -63 -201t-174 -72q-112 0 -174.5 72.5t-62.5 204.5q0 131 62.5 204t173.5 73q114 0 176 -73t62 -208zM423 259q0 97 -39.5 150t-110.5 53q-70 0 -110 -53t-40 -147q0 -95 40 -147.5t110 -52.5q69 0 109.5 52.5t40.5 144.5zM431 847q-15 -104 -89 -104
q-21 0 -85 25q-35 13 -49 13q-23 0 -33 -37h-58q8 49 30.5 76t55.5 27q23 0 70 -19q41 -18 63 -18q25 0 37 37h58zM451 578h-75l-97 86l-95 -86h-77l115 135h114z" />
    <glyph glyph-name="Ocircumflexdotbelow" unicode="&#x1ed8;" horiz-adv-x="778" 
d="M742 353q0 -163 -96.5 -267t-255.5 -104q-158 0 -255 103.5t-97 273.5q0 172 97.5 280t253.5 108q160 0 256.5 -108.5t96.5 -285.5zM649 355q0 139 -71 224.5t-189 85.5q-115 0 -186.5 -85.5t-71.5 -220.5q0 -134 71 -214.5t188 -80.5q116 0 187.5 80t71.5 211zM561 783
h-75l-97 86l-95 -86h-77l115 135h114zM441 -183h-104v104h104v-104z" />
    <glyph glyph-name="ocircumflexdotbelow" unicode="&#x1ed9;" 
d="M510 258q0 -129 -63 -201t-174 -72q-112 0 -174.5 72.5t-62.5 204.5q0 131 62.5 204t173.5 73q114 0 176 -73t62 -208zM423 259q0 97 -39.5 150t-110.5 53q-70 0 -110 -53t-40 -147q0 -95 40 -147.5t110 -52.5q69 0 109.5 52.5t40.5 144.5zM421 580h-63l-81 96l-79 -96
h-64l96 150h95zM330 -183h-104v104h104v-104z" />
    <glyph glyph-name="Ohornacute" unicode="&#x1eda;" horiz-adv-x="778" 
d="M742 357q0 -89 -33.5 -167t-92.5 -128q-91 -77 -226 -77q-158 0 -255 103.5t-97 274.5q0 170 97 274t254 104q163 0 258 -108q45 37 45 96h-48v104h93v-101q0 -85 -64 -132q69 -100 69 -243zM649 359q0 138 -70.5 219t-189.5 81q-116 0 -187 -81t-71 -215t71 -215
t188 -81q116 0 187.5 80t71.5 212zM605 916l-179 -133h-72l115 133h136z" />
    <glyph glyph-name="ohornacute" unicode="&#x1edb;" horiz-adv-x="571" 
d="M559 527q0 -89 -71 -136q22 -61 22 -133q0 -129 -63 -201t-174 -72q-112 0 -174.5 72.5t-62.5 204.5q0 131 62.5 204t173.5 73q137 0 199 -110q43 37 43 95h-48v104h93v-101zM423 259q0 97 -39.5 150t-110.5 53q-70 0 -110 -53t-40 -147q0 -95 40 -147.5t110 -52.5
q69 0 109.5 52.5t40.5 144.5zM452 729l-149 -148h-60l96 148h113z" />
    <glyph glyph-name="Ohorngrave" unicode="&#x1edc;" horiz-adv-x="778" 
d="M742 357q0 -89 -33.5 -167t-92.5 -128q-91 -77 -226 -77q-158 0 -255 103.5t-97 274.5q0 170 97 274t254 104q163 0 258 -108q45 37 45 96h-48v104h93v-101q0 -85 -64 -132q69 -100 69 -243zM649 359q0 138 -70.5 219t-189.5 81q-116 0 -187 -81t-71 -215t71 -215
t188 -81q116 0 187.5 80t71.5 212zM426 783h-72l-179 133h136z" />
    <glyph glyph-name="ohorngrave" unicode="&#x1edd;" horiz-adv-x="571" 
d="M559 527q0 -89 -71 -136q22 -61 22 -133q0 -129 -63 -201t-174 -72q-112 0 -174.5 72.5t-62.5 204.5q0 131 62.5 204t173.5 73q137 0 199 -110q43 37 43 95h-48v104h93v-101zM423 259q0 97 -39.5 150t-110.5 53q-70 0 -110 -53t-40 -147q0 -95 40 -147.5t110 -52.5
q69 0 109.5 52.5t40.5 144.5zM303 581h-60l-149 148h113z" />
    <glyph glyph-name="Ohornhookabove" unicode="&#x1ede;" horiz-adv-x="778" 
d="M742 357q0 -89 -33.5 -167t-92.5 -128q-91 -77 -226 -77q-158 0 -255 103.5t-97 274.5q0 170 97 274t254 104q163 0 258 -108q45 37 45 96h-48v104h93v-101q0 -85 -64 -132q69 -100 69 -243zM649 359q0 138 -70.5 219t-189.5 81q-116 0 -187 -81t-71 -215t71 -215
t188 -81q116 0 187.5 80t71.5 212zM503 911q0 -24 -10.5 -40.5t-39.5 -37.5q-23 -18 -29 -24.5t-6 -14.5v-30h-62v33q0 23 11 38t42 35v-1q32 25 32 42q0 14 -14 22.5t-37 8.5q-34 0 -45 -17v1q-7 -11 -7 -44h-61q0 115 116 115q51 0 80.5 -23.5t29.5 -62.5z" />
    <glyph glyph-name="ohornhookabove" unicode="&#x1edf;" horiz-adv-x="571" 
d="M559 527q0 -89 -71 -136q22 -61 22 -133q0 -129 -63 -201t-174 -72q-112 0 -174.5 72.5t-62.5 204.5q0 131 62.5 204t173.5 73q137 0 199 -110q43 37 43 95h-48v104h93v-101zM423 259q0 97 -39.5 150t-110.5 53q-70 0 -110 -53t-40 -147q0 -95 40 -147.5t110 -52.5
q69 0 109.5 52.5t40.5 144.5zM386 706q0 -24 -10.5 -40.5t-39.5 -37.5q-23 -18 -29 -24.5t-6 -14.5v-30h-62v33q0 23 11 38t42 35v-1q32 25 32 42q0 14 -14 22.5t-37 8.5q-34 0 -45 -17v1q-7 -11 -7 -44h-61q0 115 116 115q51 0 80.5 -23.5t29.5 -62.5z" />
    </font>
</defs>
</svg>
